Today is a free download without charge Download

Батальонъ (Дмитрий Месхиев) [2015, Россия, драма, военный, история, BDRip 1080p]

Reply to topic
 
Author
Message

Omen ®

Longevity: 8 years 10 months

Posts: 181086

Торрент-статистика

Post 20-Mar-2016 03:00

[Quote]

Батальонъ
Страна: Россия
Жанр: Драма, военный, история
Год выпуска: 2015
Продолжительность: 02:08:54
Перевод: Не требуется
Cубтитры нет
Оригинальная аудиодорожка: русский
Режиссёр: Дмитрий Месхиев
В ролях: Мария Аронова, Мария Кожевникова, Ирина Рахманова, Марат Башаров, Янина Малинчик, Евгений Дятлов, Алёна Кучкова, Валерия Шкирандо, Николай Аузин, Владимир Зайцев
Описание: Весна 1917-го года. Февральская революция изменила жизнь России и ход Великой войны. Государь уже отрёкся от престола. В окопах, где противостояние с немцами длится уже не один год, вовсю ведут свою пропаганду большевики. Они призывают к миру с неприятелем. Российское офицерство фактически ничего не может решить без одобрения так называемых солдатских комитетов. Армия находится на пороге окончательного разложения.
По приказу Временного правительства для поднятия боевого духа создаётся женский «Батальон смерти» под командованием георгиевского кавалера Марии Бочкарёвой. Своей службой «Батальон смерти» подаёт пример храбрости, мужества и спокойствия, поднимает дух солдат и доказывает, что каждая из этих женщин-героев достойна звания воина русской армии.
Сэмпл: https://www.sendspace.com/file/1n2e32
Качество видео: BDRip 1080p
Формат видео: MKV
Видео: MPEG-4 AVC/H.264 / 11.0 mbps / 1920x800 / 24.000 fps
Аудио: Rus / DTS / 6 ch / 1510 kbps / 48 kHz
Аудио: Rus / AC3 / 6 ch / 640 kbps / 48 kHz
#Сохранены оригинальные чаптеры как на Blu-ray
Rip by: bog3417

MediaInfo

General
Unique ID : 186577349097703607590494366459737479183 (0x8C5D7D880C168E33B501E507F25D180F)
Complete name : J:\Torrents\Batalion.2015.O.BDRip.1080p.by.bog3417.mkv
Format : Matroska
Format version : Version 2
File size : 11.8 GiB
Duration : 2h 8mn
Overall bit rate : 13.1 Mbps
Encoded date : UTC 2015-08-19 07:07:43
Writing application : mkvmerge v7.9.0 ('Birds') 64bit
Writing library : libebml v1.3.1 + libmatroska v1.4.2
Video
ID : 1
Format : AVC
Format/Info : Advanced Video Codec
Format profile : [email protected]
Format settings, CABAC : Yes
Format settings, ReFrames : 5 frames
Codec ID : V_MPEG4/ISO/AVC
Duration : 2h 8mn
Bit rate : 11.0 Mbps
Width : 1 920 pixels
Height : 800 pixels
Display aspect ratio : 2.40:1
Frame rate mode : Constant
Frame rate : 24.000 fps
Color space : YUV
Chroma subsampling : 4:2:0
Bit depth : 8 bits
Scan type : Progressive
Bits/(Pixel*Frame) : 0.298
Stream size : 9.66 GiB (82%)
Writing library : x264 core 146 r2538 121396c
Encoding settings : cabac=1 / ref=5 / deblock=1:-3:-3 / analyse=0x3:0x33 / me=umh / subme=11 / psy=1 / psy_rd=1.00:0.00 / mixed_ref=1 / me_range=32 / chroma_me=1 / trellis=2 / 8x8dct=1 / cqm=0 / deadzone=21,11 / fast_pskip=0 / chroma_qp_offset=-2 / threads=12 / lookahead_threads=2 / sliced_threads=0 / nr=0 / decimate=0 / interlaced=0 / bluray_compat=0 / constrained_intra=0 / bframes=9 / b_pyramid=2 / b_adapt=2 / b_bias=0 / direct=3 / weightb=1 / open_gop=0 / weightp=2 / keyint=240 / keyint_min=24 / scenecut=40 / intra_refresh=0 / rc=2pass / mbtree=0 / bitrate=11000 / ratetol=1.0 / qcomp=0.60 / qpmin=0 / qpmax=69 / qpstep=4 / cplxblur=20.0 / qblur=0.5 / ip_ratio=1.40 / pb_ratio=1.30 / aq=3:0.90
Language : English
Default : Yes
Forced : No
Audio #1
ID : 2
Format : DTS
Format/Info : Digital Theater Systems
Mode : 16
Format settings, Endianness : Big
Codec ID : A_DTS
Duration : 2h 8mn
Bit rate mode : Constant
Bit rate : 1 510 Kbps
Channel(s) : 6 channels
Channel positions : Front: L C R, Side: L R, LFE
Sampling rate : 48.0 KHz
Frame rate : 93.750 fps (512 spf)
Bit depth : 24 bits
Compression mode : Lossy
Stream size : 1.36 GiB (11%)
Default : Yes
Forced : No
Audio #2
ID : 3
Format : AC-3
Format/Info : Audio Coding 3
Mode extension : CM (complete main)
Format settings, Endianness : Big
Codec ID : A_AC3
Duration : 2h 8mn
Bit rate mode : Constant
Bit rate : 640 Kbps
Channel(s) : 6 channels
Channel positions : Front: L C R, Side: L R, LFE
Sampling rate : 48.0 KHz
Frame rate : 31.250 fps (1536 spf)
Compression mode : Lossy
Stream size : 590 MiB (5%)
Default : No
Forced : No
Menu #1
00:00:00.000 : en:00:00:00.000
00:12:18.875 : en:00:12:18.875
00:21:40.042 : en:00:21:40.042
00:33:42.625 : en:00:33:42.625
00:41:00.250 : en:00:41:00.250
00:55:59.208 : en:00:55:59.208
01:01:24.000 : en:01:01:24.000
01:11:55.417 : en:01:11:55.417
01:23:56.292 : en:01:23:56.292
01:31:40.500 : en:01:31:40.500
01:40:55.167 : en:01:40:55.167
01:52:30.167 : en:01:52:30.167
Menu #2
00:00:00.000 : en:00:00:00.000
00:12:18.875 : en:00:12:18.875
00:21:40.042 : en:00:21:40.042
00:33:42.625 : en:00:33:42.625
00:41:00.250 : en:00:41:00.250
00:55:59.208 : en:00:55:59.208
01:01:24.000 : en:01:01:24.000
01:11:55.417 : en:01:11:55.417
01:23:56.292 : en:01:23:56.292
01:31:40.500 : en:01:31:40.500
01:40:55.167 : en:01:40:55.167
01:52:30.167 : en:01:52:30.167

Скриншоты

Other forum [Profile] [PM]
Display posts from previous:    
Reply to topic

The time now is: Today 13:14

All times are GMT + 3 Hours



You cannot post new topics in this forum
You cannot reply to topics in this forum
You cannot edit your posts in this forum
You cannot delete your posts in this forum
You cannot vote in polls in this forum
You cannot attach files in this forum
You cannot download files in this forum