Today is a free download without charge Download

Храбрая сердцем / Brave (Марк Эндрюс, Бренда Чэпман, Стив Пурселл, 2012) CamRip *Proper*

Reply to topic
 
Author
Message

Omen ®

Longevity: 8 years 7 months

Posts: 181087

Торрент-статистика

Post 01-Aug-2012 21:10

[Quote]

Храбрая сердцем
Brave
- Русское название: Храбрая сердцем
Оригинальное название: Brave
Год выпуска: 2012
Производство: США, Pixar Animation Studios, Walt Disney Pictures
Жанр: Мультфильм, фэнтези, комедия, приключения, семейный-Перевод: Дублированный
Субтитры: Отсутствуют-Дата мировой премьеры: 10 июня 2012
Дата российской премьеры: 21 июня 2012, «WDSSPR»
Дата выхода DVD релиза: 13 ноября 2012, «Уолт Дисней Компани СНГ»-Режиссер: Марк Эндрюс, Бренда Чэпман, Стив Пурселл
Продюсер: Кэтерин Сарафьян, Пит Доктер, Мэри Элис Драмм
Актеры: Келли Макдоналд, Эмма Томпсон, Билли Коннолли, Джули Уолтерс Робби Колтрейн, Кевин МакКидд, Крэйг Фергюсон, Сэлли Кингхорн, Эйлид Фрайзер...-Описание фильма:
Испокон веков мифы и легенды окутывают загадочной пеленой живописные отроги Шотландских гор. Искусной лучнице Мериде приходится выбирать свой путь в жизни самостоятельно, и однажды она отказывается следовать древним традициям королевства, бросая вызов могущественным шотландским кланам и их предводителям: нескладному лорду МакГаффину, угрюмому лорду Макинтошу и сварливому лорду Дингволлу. Неосторожные поступки Мериды грозят повергнуть королевство в хаос, и тогда она отправляется за советом к эксцентричной отшельнице, которая вместо помощи накладывает на Мериду опасное заклятье. Юной принцессе предстоит полагаться только на собственную храбрость, чтобы преодолеть могущественное волшебство и победить самого страшного зверя из тех, что водятся в горных долинах.-Продолжительность: 01:24:26
Качество видео: CamRip-Видеокодек: Xvid
Битрейт видео: ~2185 kb/s
Размер кадра: 720x320
Аудиокодек: MP3, 2ch
Битрейт аудио: 128 Kb/s
- -

MediaInfo:

Код:
Общее
Полное имя                               : E:\Cinema\Xrabraya.serdcem.2012.D.TS.avi
Формат                                   : AVI
Формат/Информация                        : Audio Video Interleave
Размер файла                             : 1,37 Гбайт
Продолжительность                        : 1 ч. 24 м.
Общий поток                              : 2322 Кбит/сек
Программа кодирования                    : VirtualDubMod 1.5.10.2 (build 2542/release)
Библиотека кодирования                   : VirtualDubMod build 2542/release
Видео
Идентификатор                            : 0
Формат                                   : MPEG-4 Visual
Профиль формата                          : Advanced [email protected]
Параметр BVOP формата                    : 2
Параметр QPel формата                    : Нет
Параметр GMC формата                     : Без точки перехода
Параметр матрицы формата                 : Default (MPEG)
Идентификатор кодека                     : XVID
Идентификатор кодека/Подсказка           : XviD
Продолжительность                        : 1 ч. 24 м.
Битрейт                                  : 2185 Кбит/сек
Ширина                                   : 720 пикселей
Высота                                   : 320 пикселей
Соотношение сторон                       : 2,25:1
Частота кадров                           : 24,000 кадра/сек
Цветовое пространство                    : YUV
Субдискретизация насыщенности            : 4:2:0
Битовая глубина                          : 8 бит
Тип развёртки                            : Прогрессивная
Метод сжатия                             : С потерями
Бит/(Пиксели*Кадры)                      : 0.395
Размер потока                            : 1,29 Гбайт (94%)
Библиотека кодирования                   : XviD 1.2.1 (UTC 2008-12-04)
Аудио
Идентификатор                            : 1
Формат                                   : MPEG Audio
Версия формата                           : Version 1
Профиль формата                          : Layer 3
Режим                                    : Dual mono
Идентификатор кодека                     : 55
Идентификатор кодека/Подсказка           : MP3
Продолжительность                        : 1 ч. 24 м.
Вид битрейта                             : Постоянный
Битрейт                                  : 128 Кбит/сек
Каналы                                   : 2 канала
Частота                                  : 48,0 КГц
Метод сжатия                             : С потерями
Размер потока                            : 77,3 Мбайт (6%)
Выравнивание                             : Соединение по промежуткам
Продолжительность промежутка             : 42  мс. (1,00 видеокадр)
Время предзагрузки промежутка            : 504  мс.
-Скриншоты:
           
Other forum [Profile] [PM]
Display posts from previous:    
Reply to topic

The time now is: Today 10:37

All times are GMT + 3 Hours



You cannot post new topics in this forum
You cannot reply to topics in this forum
You cannot edit your posts in this forum
You cannot delete your posts in this forum
You cannot vote in polls in this forum
You cannot attach files in this forum
You cannot download files in this forum