Today is a free download without charge Download

Последняя ночь (Арсений Гончуков) [2015, Россия, драма, HDTV 1080i]

Reply to topic
 
Author
Message

Omen ®

Longevity: 8 years 10 months

Posts: 181086

Торрент-статистика

Post 18-Mar-2016 09:00

[Quote]

Последняя ночь- -Страна: Россия
Жанр: драма
Год выпуска: 2015
Производство: «Кинокомпания "Aquarium Films"»
Продолжительность: 01:24:00
Оригинальная аудиодорожка: русский
Cубтитры: нет-Режиссер: Арсений Гончуков-В ролях:
Евгений Крылов, Мария Сурова, Даниэла Стоянович, Алексей Маслодудов, Алексей Любимов,
Ксения Поддубицкая, Георгий Мартиросян, Анастасия Великородная, Виктор Муравский, Наталия Вдовина-Описание:
Успешный врач-онколог Иван, создавший лекарство от рака, неожиданно выясняет, что по злой иронии судьбы он сам неизлечимо болен. Осознав, что у него остаётся единственный шанс исправить роковую ошибку, совершенную в далёком прошлом, Иван бросает семью и уезжает в другой город к женщине, которую любил всю жизнь, в надежде провести с ней последнюю ночь…-Возраст: 18+-Качество: HDTV (1080i)
Формат: TS
Видео кодек: AVC
Аудио кодек: MPEG Audio

Видео: AVC, 1920 х 1080 (16:9), 25,000 кадр/сек, 6 374 Кбит/сек, 0.123 bit/pixel
Аудио: MPEG Audio 2, 48000 Hz, 192 Kbps, 2 канала
-

MediaInfo

General
ID : 1 (0x1)
Complete name : D:\Раздачи\Последняя ночь HDTV (1080i)\Последняя ночь HDTV (1080i).ts
Format : MPEG-TS
File size : 4.08 GiB
Duration : 1h 24mn
Overall bit rate mode : Variable
Overall bit rate : 6 910 Kbps
Video
ID : 67 (0x43)
Menu ID : 1 (0x1)
Format : AVC
Format/Info : Advanced Video Codec
Format profile : [email protected]
Format settings, CABAC : Yes
Format settings, ReFrames : 3 frames
Format settings, GOP : M=3, N=33
Codec ID : 27
Duration : 1h 24mn
Bit rate mode : Constant
Bit rate : 6 374 Kbps
Nominal bit rate : 9 000 Kbps
Width : 1 920 pixels
Height : 1 080 pixels
Display aspect ratio : 16:9
Frame rate : 25.000 fps
Standard : PAL
Color space : YUV
Chroma subsampling : 4:2:0
Bit depth : 8 bits
Scan type : Interlaced
Scan type, store method : Separated fields
Scan order : Top Field First
Bits/(Pixel*Frame) : 0.123
Stream size : 3.77 GiB (92%)
Color range : Limited
Color primaries : BT.709
Transfer characteristics : BT.709
Matrix coefficients : BT.709
Audio
ID : 68 (0x44)
Menu ID : 1 (0x1)
Format : MPEG Audio
Format version : Version 1
Format profile : Layer 2
Codec ID : 3
Duration : 1h 24mn
Bit rate mode : Constant
Bit rate : 192 Kbps
Channel(s) : 2 channels
Sampling rate : 48.0 KHz
Compression mode : Lossy
Stream size : 116 MiB (3%)
Language : Russian

Скриншоты


-Раздаю до первых 5-ти скачавших, на раздачи не возвращаюсь...-
Other forum [Profile] [PM]
Display posts from previous:    
Reply to topic

The time now is: Today 14:00

All times are GMT + 3 Hours



You cannot post new topics in this forum
You cannot reply to topics in this forum
You cannot edit your posts in this forum
You cannot delete your posts in this forum
You cannot vote in polls in this forum
You cannot attach files in this forum
You cannot download files in this forum