Today is a free download without charge Download

Убийство в Гросс-Пойнте / Grosse Pointe Blank (Джордж Армитэйдж / George Armitage) [1997 г., США, комедия, ВDRip720р]

Reply to topic
 
Author
Message

Delia ®

Gender:

Longevity: 10 years

Posts: 1821

Торрент-статистика

Post 01-Aug-2012 09:06

[Quote]

Убийство в Гросс-Пойнте / Grosse Pointe Blank«A comedy about a hit man, a high school reunion, and the girl he left behind.»--
Год выпуска: 1997
Страна: США
Жанр: боевик, триллер, мелодрама, комедия, криминал, ...
Продолжительность: 01:47:23
Перевод: Профессиональный (многоголосый закадровый)
Субтитры: English (srt)
Режиссер: Джордж Эрмитаж
Сценарий: Том Янкевич, Д. В. Де Винсентис, Стив Пинк, ...
Продюсер: Брент Эрмитаж, Сьюзэн Арнольд, Роджер Бернбаум, ...
Оператор: Джейми Андерсон
Композитор: Джерри Дитон, Стивен Северин, Ли Томпсон, ...
Художник: Стефен Олтмэн, Скотт Миэн, Юджини Бафалукос, ...
Монтаж: Брайан Бердан- В ролях: Джон Кьюсак (John Cusack), Минни Драйвер (Minnie Driver), Алан Аркин (Alan Arkin), Дэн Эйкройд (Dan Aykroyd), Джоан Кьюсак (Joan Cusack), Хэнк Азария (Hank Azaria), К. Тодд Фриман (K. Todd Freeman), Джереми Пивен (Jeremy Piven), Митч Райан (Mitch Ryan), Майкл Кудлиц (Michael Cudlitz), Бенни Уркидез (Benny Urquidez), Даффи Тейлор (Duffy Taylor), Одри Киссель (Audrey Kissel), Карлос Джекотт (Carlos Jacott), Брайан Пауэлл (Brian Powell), Энн Кьюсак (Ann Cusack), Д. В. Де Винсентис (D.V. DeVincentis), Барбара Харрис (Barbara Harris), Венди Торлаксон (Wendy Thorlakson), Белита Морено (Belita Moreno)
Описание: Мартин Блэнк приезжает на встречу выпускников в свой родной городок Гросс-Пойнт. У него богатые планы на этот вечер: он должен помириться со своей бывшей девушкой, которую не видел десять лет, а заодно, чтобы совместить приятное с полезным... совершить убийство.Ведь в отличии от остальных одноклассников, Мартин выбрал карьеру профессионального киллера, и в Гросс-Пойнте его ждет очередное задание. И не только его... За Мартином уже давно охотятся два правительственных агента и конкурент, которые не дадут гостям скучать.-Рейтинг MPAA: --Релиз группы:
--Качество: BDRip720р
Формат: MKV
Видео кодек: H.264 (AVC)
Аудио кодеk: AC3
Видео: 1280x692 (1.850:1), 23.976 fps, AVC, 5 251 Kbps
Аудио: AC3, 192 Kbps, 48.0 KHz, 2 ch (MVO)
Аудио #2: AC3, 384 Kbps, 48.0 KHz, 6 ch (AVO. Ю.Живов )

МедиаИнфо

Код:
General
Complete name                    : Grosse Pointe Blank (1997)BDRip-F.HD.mkv
Format                           : Matroska
File size                        : 4.37 GiB
Duration                         : 1h 47mn
Overall bit rate                 : 5 826 Kbps
Encoded date                     : UTC 2012-08-01 04:52:38
Writing application              : mkvmerge v5.7.0 ('The Whirlwind') built on Jul  8 2012 20:08:51
Writing library                  : libebml v1.2.3 + libmatroska v1.3.0
Video
ID                               : 1
Format                           : AVC
Format/Info                      : Advanced Video Codec
Format profile                   : [email protected]
Format settings, CABAC           : Yes
Format settings, ReFrames        : 9 frames
Muxing mode                      : Container [email protected]
Codec ID                         : V_MPEG4/ISO/AVC
Duration                         : 1h 47mn
Bit rate                         : 5 251 Kbps
Width                            : 1 280 pixels
Height                           : 692 pixels
Display aspect ratio             : 1.850
Frame rate                       : 23.976 fps
Color space                      : YUV
Chroma subsampling               : 4:2:0
Bit depth                        : 8 bits
Scan type                        : Progressive
Bits/(Pixel*Frame)               : 0.247
Stream size                      : 3.85 GiB (88%)
Writing library                  : x264 core 125 r2200 999b753
Encoding settings                : cabac=1 / ref=9 / deblock=1:-3:-2 / analyse=0x3:0x113 / me=umh / subme=10 / psy=1 / psy_rd=1.00:0.25 / mixed_ref=1 / me_range=32 / chroma_me=1 / trellis=2 / 8x8dct=1 / cqm=0 / deadzone=21,11 / fast_pskip=0 / chroma_qp_offset=-4 / threads=6 / lookahead_threads=1 / sliced_threads=0 / nr=0 / decimate=1 / interlaced=0 / bluray_compat=0 / constrained_intra=0 / bframes=8 / b_pyramid=2 / b_adapt=2 / b_bias=0 / direct=3 / weightb=1 / open_gop=0 / weightp=2 / keyint=240 / keyint_min=23 / scenecut=40 / intra_refresh=0 / rc=2pass / mbtree=0 / bitrate=5251 / ratetol=1.0 / qcomp=0.70 / qpmin=10 / qpmax=51 / qpstep=4 / cplxblur=20.0 / qblur=0.5 / ip_ratio=1.40 / pb_ratio=1.30 / aq=2:0.90
Color primaries                  : BT.709-5, BT.1361, IEC 61966-2-4, SMPTE RP177
Transfer characteristics         : BT.709-5, BT.1361
Matrix coefficients              : BT.709-5, BT.1361, IEC 61966-2-4 709, SMPTE RP177
Audio #1
ID                               : 2
Format                           : AC-3
Format/Info                      : Audio Coding 3
Mode extension                   : CM (complete main)
Codec ID                         : A_AC3
Duration                         : 1h 47mn
Bit rate mode                    : Constant
Bit rate                         : 192 Kbps
Channel(s)                       : 2 channels
Channel positions                : Front: L R
Sampling rate                    : 48.0 KHz
Bit depth                        : 16 bits
Stream size                      : 147 MiB (3%)
Title                            : MVO
Language                         : Russian
Audio #2
ID                               : 3
Format                           : AC-3
Format/Info                      : Audio Coding 3
Mode extension                   : CM (complete main)
Codec ID                         : A_AC3
Duration                         : 1h 47mn
Bit rate mode                    : Constant
Bit rate                         : 384 Kbps
Channel(s)                       : 6 channels
Channel positions                : Front: L C R, Side: L R, LFE
Sampling rate                    : 48.0 KHz
Bit depth                        : 16 bits
Stream size                      : 295 MiB (7%)
Title                            : VO Ю.Живов
Language                         : Russian
Text
ID                               : 4
Format                           : UTF-8
Codec ID                         : S_TEXT/UTF8
Codec ID/Info                    : UTF-8 Plain Text
Menu
00:00:00.000                     : en:Chapter 01
00:00:30.405                     : en:Chapter 02
00:07:45.590                     : en:Chapter 03
00:11:55.881                     : en:Chapter 04
00:21:10.269                     : en:Chapter 05
00:23:43.255                     : en:Chapter 06
00:27:13.757                     : en:Chapter 07
00:42:30.923                     : en:Chapter 08
00:51:55.862                     : en:Chapter 09
00:58:43.269                     : en:Chapter 10
01:06:19.141                     : en:Chapter 11
01:08:44.286                     : en:Chapter 12
01:18:49.933                     : en:Chapter 13
01:23:19.160                     : en:Chapter 14
01:30:20.415                     : en:Chapter 15
01:36:45.591                     : en:Chapter 16
01:43:24.990                     : en:Chapter 17
01:47:23.520                     : en:Chapter 18


Скриншоты

     
     

_________________
Человек – это канат, натянутый между животным и сверхчеловеком, – канат над пропастью.
В человеке ценно то, что он мост, а не цель. Фридрих Ницше
Other forum [Profile] [PM]
Display posts from previous:    
Reply to topic

The time now is: Today 10:15

All times are GMT + 3 Hours



You cannot post new topics in this forum
You cannot reply to topics in this forum
You cannot edit your posts in this forum
You cannot delete your posts in this forum
You cannot vote in polls in this forum
You cannot attach files in this forum
You cannot download files in this forum