Today is a free download without charge Download

Я, робот / I, Robot (Алекс Пройас / Alex Proyas) [2004, США, Германия, фантастика, боевик, триллер, детектив, BDRip720p]

Reply to topic
 
Author
Message

Delia ®

Gender:

Longevity: 10 years

Posts: 1821

Торрент-статистика

Post 31-Jul-2012 20:46

[Quote]

Я, робот / I, Robot«Предвидел только он.»--
Год выпуска: 2004
Страна: США , Германия
Жанр: фантастика, боевик, триллер, детектив, ...
Продолжительность: 01:54:43
Перевод: Профессиональный (дублированный)
Субтитры: Russian , english (srt)
Режиссер: Алекс Пройас
Сценарий: Джеф Винтар, Акива Голдсман, Айзек Азимов
Продюсер: Джон Дэвис, Тофер Дау, Вик Годфри, ...
Оператор: Саймон Дагган
Композитор: Марко Белтрами
Художник: Патрик Татопулос, Крис Аугуст, Хелен Джарвис, ...
Монтаж: Уильям Хой, Ричард Лиройд, Армен Минасян- В ролях: Уилл Смит (Will Smith), Бриджет Мойнэхэн (Bridget Moynahan), Алан Тьюдик (Alan Tudyk), Джеймс Кромуэлл (James Cromwell), Брюс Гринвуд (Bruce Greenwood), Адриан Рикард (Adrian Ricard), Чи МакБрайд (Chi McBride), Джерри Вассерман (Jerry Wasserman), Фиона Хоган (Fiona Hogan), Питер Шинкода (Peter Shinkoda), Терри Чен (Terry Chen), Дэвид Нэйсом (David Haysom), Скотт Хейндл (Scott Heindl), Шарон Уилкинс (Sharon Wilkins), Крэйг Марч (Craig March), Kyanna Cox, Даррен Мур (Darren Moore), Аарон Дуглас (Aaron Douglas), Шейла Дайсон (Shayla Dyson), Бобби Л. Стюарт (Bobby L. Stewart)
Описание: Действие фильма происходит в будущем (2035 г.), где роботы являются обычными помощниками человека. Главный герой — полицейский, «не переваривающий» роботов, расследует дело об убийстве, в которое оказывается вовлечен робот.Речь идет о возможном нарушении «Закона о Роботах» (робот никогда не поднимет руки на человека), что, в принципе, невозможно. Ситуация близка к катастрофической: если машины могут нарушать этот закон, то уже ничто не остановит их от захвата контроля над людьми, тем более, что человечество уже давно стало полностью зависимо от роботов...-Рейтинг MPAA: --Релиз группы:
--Качество: BDRip
Формат: MKV
Видео кодек: H.264 (AVC)
Аудио кодеk: AC3
Видео: 1280x544 (2.35:1), 23.976 fps, AVC, 5 007 Kbps
Аудио: AC3, 448 Kbps, 48.0 KHz, 6 ch

МедиаИнфо

Код:
General
Complete name                    : I, Robot (2004) BDRip-F.HD.mkv
Format                           : Matroska
File size                        : 4.37 GiB
Duration                         : 1h 54mn
Overall bit rate                 : 5 454 Kbps
Encoded date                     : UTC 2012-07-31 16:59:21
Writing application              : mkvmerge v5.7.0 ('The Whirlwind') built on Jul  8 2012 20:08:51
Writing library                  : libebml v1.2.3 + libmatroska v1.3.0
Video
ID                               : 1
Format                           : AVC
Format/Info                      : Advanced Video Codec
Format profile                   : [email protected]
Format settings, CABAC           : Yes
Format settings, ReFrames        : 9 frames
Muxing mode                      : Container [email protected]
Codec ID                         : V_MPEG4/ISO/AVC
Duration                         : 1h 54mn
Bit rate                         : 5 007 Kbps
Width                            : 1 280 pixels
Height                           : 544 pixels
Display aspect ratio             : 2.35:1
Frame rate                       : 23.976 fps
Color space                      : YUV
Chroma subsampling               : 4:2:0
Bit depth                        : 8 bits
Scan type                        : Progressive
Bits/(Pixel*Frame)               : 0.300
Stream size                      : 3.92 GiB (90%)
Writing library                  : x264 core 125 r2200 999b753
Encoding settings                : cabac=1 / ref=9 / deblock=1:-3:-2 / analyse=0x3:0x113 / me=umh / subme=10 / psy=1 / psy_rd=1.00:0.10 / mixed_ref=1 / me_range=32 / chroma_me=1 / trellis=2 / 8x8dct=1 / cqm=0 / deadzone=21,11 / fast_pskip=0 / chroma_qp_offset=-3 / threads=6 / lookahead_threads=1 / sliced_threads=0 / nr=0 / decimate=1 / interlaced=0 / bluray_compat=0 / constrained_intra=0 / bframes=9 / b_pyramid=2 / b_adapt=2 / b_bias=0 / direct=3 / weightb=1 / open_gop=0 / weightp=2 / keyint=240 / keyint_min=23 / scenecut=40 / intra_refresh=0 / rc=2pass / mbtree=0 / bitrate=5007 / ratetol=1.0 / qcomp=0.70 / qpmin=10 / qpmax=51 / qpstep=4 / cplxblur=20.0 / qblur=0.5 / ip_ratio=1.40 / pb_ratio=1.30 / aq=2:0.90
Color primaries                  : BT.709-5, BT.1361, IEC 61966-2-4, SMPTE RP177
Transfer characteristics         : BT.709-5, BT.1361
Matrix coefficients              : BT.709-5, BT.1361, IEC 61966-2-4 709, SMPTE RP177
Audio
ID                               : 2
Format                           : AC-3
Format/Info                      : Audio Coding 3
Mode extension                   : CM (complete main)
Codec ID                         : A_AC3
Duration                         : 1h 54mn
Bit rate mode                    : Constant
Bit rate                         : 448 Kbps
Channel(s)                       : 6 channels
Channel positions                : Front: L C R, Side: L R, LFE
Sampling rate                    : 48.0 KHz
Bit depth                        : 16 bits
Stream size                      : 368 MiB (8%)
Language                         : Russian
Text #1
ID                               : 3
Format                           : UTF-8
Codec ID                         : S_TEXT/UTF8
Codec ID/Info                    : UTF-8 Plain Text
Language                         : Russian
Text #2
ID                               : 4
Format                           : UTF-8
Codec ID                         : S_TEXT/UTF8
Codec ID/Info                    : UTF-8 Plain Text
Menu
00:00:00.000                     : en:Chapter 01
00:01:46.314                     : en:Chapter 03
00:03:29.626                     : en:Chapter 04
00:06:17.919                     : en:Chapter 05
00:07:56.893                     : en:Chapter 06
00:10:19.076                     : en:Chapter 07
00:12:10.604                     : en:Chapter 08
00:15:34.683                     : en:Chapter 09
00:17:47.357                     : en:Chapter 10
00:22:51.244                     : en:Chapter 11
00:26:13.405                     : en:Chapter 12
00:26:58.616                     : en:Chapter 13
00:33:22.542                     : en:Chapter 15
00:36:02.952                     : en:Chapter 16
00:41:22.897                     : en:Chapter 17
00:46:07.264                     : en:Chapter 18
00:49:05.400                     : en:Chapter 19
00:52:13.880                     : en:Chapter 20
00:55:21.651                     : en:Chapter 21
00:58:31.090                     : en:Chapter 22
01:00:06.144                     : en:Chapter 23
01:01:08.039                     : en:Chapter 24
01:07:55.487                     : en:Chapter 25
01:08:17.468                     : en:Chapter 26
01:10:23.677                     : en:Chapter 27
01:13:16.600                     : en:Chapter 28
01:16:53.191                     : en:Chapter 29
01:18:38.838                     : en:Chapter 30
01:20:13.600                     : en:Chapter 31
01:21:17.664                     : en:Chapter 32
01:21:56.828                     : en:Chapter 33
01:27:28.910                     : en:Chapter 35
01:28:57.039                     : en:Chapter 36
01:32:59.031                     : en:Chapter 37
01:34:44.512                     : en:Chapter 38
01:38:08.841                     : en:Chapter 39
01:41:10.272                     : en:Chapter 40
01:44:14.790                     : en:Chapter 41
01:45:02.128                     : en:Chapter 42
01:54:43.251                     : en:Chapter 46

Знаете ли Вы, что...

» В картине задействована одна из последних разработок компании Audi — шикарный автомобиль Audi Le Mans Quattro. Хотя изначально этот автомобиль изготавливался специально для фильма, боссам компании новая модель настолько понравилась, что они решили запустить её в серийное производство.
» В одном из окон магазинчика, торгующего антиквариатом, зрители могут увидеть знаменитую собачку-робота AIBO.
» Сценарий картины был основан на совершенно другом проекте под названием «Запаянный» («Hardwired»). Несмотря на то, что у проекта было довольно мало шансов на выход в свет, композитор Джефф Занелли умудрился написать заглавную композицию для картины.
» Изначально сценарий не имел ничего общего с произведением известного американского фантаста Айзека Азимова (название которого данный проект сейчас и носит). Однако, после того, как первоначальный сценарий дошел до режиссера, и были выкуплены права на экранизацию произведения Азимова, продюсера приняли решение передать имеющийся под рукой текст Акиве Голдсману с пожеланием скрестить оригинальный рассказ Азимова и уже разработанный сценарий «Hardwired».
» Марко Белтрами был приглашен для участия в проекте под самый занавес работы над ним, и получил в свое распоряжение всего лишь 17 дней для того, чтобы написать порядка 90 минут музыкального сопровождения к фильму.
» Фильм поставлен по мотивам всех девяти историй, входящих в сборник Айзека Азимова «Я, Робот». У сборника есть продолжение в виде четырех романов «The Caves of Steel», «The Naked Sun», «The Robots of Dawn», «Robots and Empire».
» При инициации проекта в 1998 году режиссером значился Брайан Сингер.
» Экранный образ робота Сонни создавался с использованием тех же технологий, что и Голлум во «Властелине Колец» Питера Джексона. Пластику и голос робота сыграл актёр Алан Тьюдик.


Скриншоты

     
     

_________________
Человек – это канат, натянутый между животным и сверхчеловеком, – канат над пропастью.
В человеке ценно то, что он мост, а не цель. Фридрих Ницше
Other forum [Profile] [PM]
Display posts from previous:    
Reply to topic

The time now is: Today 11:57

All times are GMT + 3 Hours



You cannot post new topics in this forum
You cannot reply to topics in this forum
You cannot edit your posts in this forum
You cannot delete your posts in this forum
You cannot vote in polls in this forum
You cannot attach files in this forum
You cannot download files in this forum