Today is a free download without charge Download

Возмещение ущерба / Collateral Damage (Эндрю Дэвис / Andrew Davis) [2001 г., Боевик, Триллер, BDRip]

Reply to topic
 
Author
Message

Omen ®

Longevity: 8 years 7 months

Posts: 181087

Торрент-статистика

Post 31-Jul-2012 13:37

[Quote]

Возмещение ущерба
Collateral Damage

«Удар террориста не был нацелен на него.
Но возмездие будет персональным.»
- Русское название: Возмещение ущерба
Оригинальное название: Collateral Damage
Производство: США
Год выпуска: 2001
Жанр: Боевик, триллер-Описание фильма:
Власти, расследующие теракт, советуют Горди Брюеру не вмешиваться в это дело. Но он уже вмешался в него самым страшным образом: его жена и сын значатся в списке жертв взрыва бомбы. Брюер, пожарный из Лос-Анджелеса, полон решимости найти неуловимого террориста по кличке Эль Лобо. Брюер знает, что Эль Лобо нанесет свой следующий удар именно здесь. Но как? Когда? И где именно? В мучительном поиске ответов на эти вопросы ясно только одно: Возмещение ущерба - это тикающая бомба постоянного напряжения.-Режиссер: Эндрю Дэвис
Актеры: Арнольд Шварценеггер, Франческа Нери, Элиас Котеас, Клифф Кертис, Джон Легуизамо, Джон Туртурро, Хсу Гарсиа, Тайлер Пози, Майкл Милхон, Рик Уорси, Рэймонд Крус, Линдсэй Фрост, Этан Дэмф, Хорхе Зепеда, Мигель Сандовал, Гарри Дж. Ленникс, Мэдисон Мэйсон, Дон Фишер, Шелли Мэлил-Продолжительность: 00:48:48
Перевод: Дублированный-Видеокодек: Xvid
Битрейт видео: ~1462 Кбит/с
Размер кадра: 720x400
Качество видео: BDRip
Аудиокодек: AC3 5.1
Битрейт аудио: 448 Кбит/с
- -

MediaInfo:

Код:
Общее
Полное имя                               : C:\Justlan\Возмещение ущерба\Vozmeshenie usherba.avi
Формат                                   : AVI
Формат/Информация                        : Audio Video Interleave
Размер файла                             : 1,46 Гбайт
Продолжительность                        : 1 ч. 48 м.
Общий поток                              : 1918 Кбит/сек
Программа кодирования                    : VirtualDubMod 1.5.10.2 (build 2540/release)
Видео
Идентификатор                            : 0
Формат                                   : MPEG-4 Visual
Профиль формата                          : Advanced [email protected]
Параметр BVOP формата                    : 3
Параметр QPel формата                    : Нет
Параметр GMC формата                     : Без точки перехода
Параметр матрицы формата                 : Выборочная
Идентификатор кодека                     : XVID
Идентификатор кодека/Подсказка           : XviD
Продолжительность                        : 1 ч. 48 м.
Битрейт                                  : 1462 Кбит/сек
Ширина                                   : 720 пикселей
Высота                                   : 400 пикселей
Соотношение сторон                       : 16:9
Частота кадров                           : 23,976 кадра/сек
Цветовое пространство                    : YUV
Субдискретизация насыщенности            : 4:2:0
Битовая глубина                          : 8 бит
Тип развёртки                            : Прогрессивная
Метод сжатия                             : С потерями
Бит/(Пиксели*Кадры)                      : 0.212
Размер потока                            : 1,11 Гбайт (76%)
Библиотека кодирования                   : XviD 1.2.1 (UTC 2008-12-04)
Аудио
Идентификатор                            : 1
Формат                                   : AC-3
Формат/Информация                        : Audio Coding 3
Расширение режима                        : CM (complete main)
Идентификатор кодека                     : 2000
Продолжительность                        : 1 ч. 48 м.
Вид битрейта                             : Постоянный
Битрейт                                  : 448 Кбит/сек
Каналы                                   : 6 каналов
Расположение каналов                     : Front: L C R, Side: L R, LFE
Частота                                  : 48,0 КГц
Битовая глубина                          : 16 бит
Метод сжатия                             : С потерями
Размер потока                            : 348 Мбайт (23%)
Выравнивание                             : Разделение по промежуткам
Продолжительность промежутка             : 42  мс. (1,00 видеокадр)
Время предзагрузки промежутка            : 500  мс.
-Скриншоты:
         
         
Other forum [Profile] [PM]
Display posts from previous:    
Reply to topic

The time now is: Today 16:24

All times are GMT + 3 Hours



You cannot post new topics in this forum
You cannot reply to topics in this forum
You cannot edit your posts in this forum
You cannot delete your posts in this forum
You cannot vote in polls in this forum
You cannot attach files in this forum
You cannot download files in this forum