Today is a free download without charge Download

Предложение / The Proposal (Энн Флетчер / Anne Fletcher) [2009 г., комедия, мелодрама, драма, BDRip 1080p]

Reply to topic
 
Author
Message

Delia ®

Gender:

Longevity: 11 years

Posts: 1821

Торрент-статистика

Post 31-Jul-2012 00:43

[Quote]

Предложение / The Proposal«Горько?..»--
Год выпуска: 2009
Страна: США
Жанр: драма, мелодрама, комедия, ...
Продолжительность: 01:47:47
Перевод: Профессиональный (дублированный)
Субтитры: Russian , english (srt)
Режиссер: Энн Флетчер
Сценарий: Пит Чиарелли
Продюсер: Дэвид Хоберман, Тодд Либерман, Сандра Буллок, ...
Оператор: Оливер Стейплтон
Композитор: Аарон Зигман
Художник: Нельсон Коутс, Скотт Миэн, Катрин Мари Томас, ...
Монтаж: Присцилла Недд-Френдли- В ролях: Сандра Буллок (Sandra Bullock), Райан Рейнольдс (Ryan Reynolds), Мэри Стинберген (Mary Steenburgen), Крэйг Т. Нельсон (Craig T. Nelson), Бетти Уайт (Betty White), Дэнис О’Харе (Denis O'Hare), Малин Акерман (Malin Akerman), Оскар Нунез (Oscar Nunez), Аасиф Мандви (Aasif Mandvi), Майкл Нури (Michael Nouri), Майкл Мосли (Michael Mosley), Дэйл Плэйс (Dale Place), Алисия Хант (Alicia Hunt), Алексис Гарсиа (Alexis Garcia), Кортни Адамс (Kortney Adams), Крис Уитни (Chris Whitney), Джеррел Ли (Jerrell Lee), Грегг Иделмен (Gregg Edelman), Филлис Кэй (Phyllis Kay), Кейт Лэйси (Kate Lacey)
Описание: Главная героиня фильма — ответственная начальница, которой грозит высылка в Канаду. Ради того, чтобы избежать ссылки в край озер, героиня готова на все — даже фиктивно выскочить замуж за своего молодого ассистента...-Рейтинг MPAA: --Релиз группы:
--Качество: BDRip
Формат: MKV
Видео кодек: H.264 (AVC)
Аудио кодеk: AC3
Видео: 1920x800 (2.40:1), 23.976 fps, AVC, 5 358 Kbps
Аудио: AC3, 448 Kbps, 48.0 KHz, 6 ch

МедиаИнфо

Код:
General
Complete name                    : The Proposal (2009)BDRip-F.HD.mkv
Format                           : Matroska
File size                        : 4.37 GiB
Duration                         : 1h 47mn
Overall bit rate                 : 5 800 Kbps
Encoded date                     : UTC 2012-07-30 20:55:19
Writing application              : mkvmerge v5.7.0 ('The Whirlwind') built on Jul  8 2012 20:08:51
Writing library                  : libebml v1.2.3 + libmatroska v1.3.0
Video
ID                               : 1
Format                           : AVC
Format/Info                      : Advanced Video Codec
Format profile                   : [email protected]
Format settings, CABAC           : Yes
Format settings, ReFrames        : 5 frames
Muxing mode                      : Container [email protected]
Codec ID                         : V_MPEG4/ISO/AVC
Duration                         : 1h 47mn
Bit rate                         : 5 358 Kbps
Width                            : 1 920 pixels
Height                           : 800 pixels
Display aspect ratio             : 2.40:1
Frame rate                       : 23.976 fps
Color space                      : YUV
Chroma subsampling               : 4:2:0
Bit depth                        : 8 bits
Scan type                        : Progressive
Bits/(Pixel*Frame)               : 0.145
Stream size                      : 3.94 GiB (90%)
Writing library                  : x264 core 125 r2200 999b753
Encoding settings                : cabac=1 / ref=5 / deblock=1:0:0 / analyse=0x3:0x113 / me=umh / subme=10 / psy=1 / psy_rd=1.00:0.10 / mixed_ref=1 / me_range=32 / chroma_me=1 / trellis=2 / 8x8dct=1 / cqm=0 / deadzone=21,11 / fast_pskip=0 / chroma_qp_offset=-3 / threads=6 / lookahead_threads=1 / sliced_threads=0 / nr=0 / decimate=1 / interlaced=0 / bluray_compat=0 / constrained_intra=0 / bframes=7 / b_pyramid=2 / b_adapt=2 / b_bias=0 / direct=3 / weightb=1 / open_gop=0 / weightp=2 / keyint=240 / keyint_min=23 / scenecut=40 / intra_refresh=0 / rc=2pass / mbtree=0 / bitrate=5358 / ratetol=1.0 / qcomp=0.70 / qpmin=10 / qpmax=51 / qpstep=4 / cplxblur=20.0 / qblur=0.5 / ip_ratio=1.40 / pb_ratio=1.30 / aq=2:1.00
Color primaries                  : BT.709-5, BT.1361, IEC 61966-2-4, SMPTE RP177
Transfer characteristics         : BT.709-5, BT.1361
Matrix coefficients              : BT.709-5, BT.1361, IEC 61966-2-4 709, SMPTE RP177
Audio
ID                               : 2
Format                           : AC-3
Format/Info                      : Audio Coding 3
Mode extension                   : CM (complete main)
Codec ID                         : A_AC3
Duration                         : 1h 47mn
Bit rate mode                    : Constant
Bit rate                         : 448 Kbps
Channel(s)                       : 6 channels
Channel positions                : Front: L C R, Side: L R, LFE
Sampling rate                    : 48.0 KHz
Bit depth                        : 16 bits
Stream size                      : 345 MiB (8%)
Language                         : Russian
Text #1
ID                               : 3
Format                           : UTF-8
Codec ID                         : S_TEXT/UTF8
Codec ID/Info                    : UTF-8 Plain Text
Language                         : Russian
Text #2
ID                               : 4
Format                           : UTF-8
Codec ID                         : S_TEXT/UTF8
Codec ID/Info                    : UTF-8 Plain Text
Menu
00:00:00.000                     : en:Chapter 01
00:08:55.535                     : en:Chapter 02
00:19:23.871                     : en:Chapter 03
00:29:32.103                     : en:Chapter 04
00:37:17.401                     : en:Chapter 05
00:47:06.615                     : en:Chapter 06
00:56:31.137                     : en:Chapter 07
01:06:25.898                     : en:Chapter 08
01:17:55.170                     : en:Chapter 09
01:25:32.418                     : en:Chapter 10
01:37:40.980                     : en:Chapter 11
01:43:02.426                     : en:Chapter 12
01:47:47.252                     : en:Chapter 13

Знаете ли Вы, что...

» Главная женская роль первоначально была отведена Джулии Робертс, но актриса не согласилась пойти на урезание своего обычного гонорара, и была заменена на Сандру Буллок.


Скриншоты

     
     

_________________
Человек – это канат, натянутый между животным и сверхчеловеком, – канат над пропастью.
В человеке ценно то, что он мост, а не цель. Фридрих Ницше
Other forum [Profile] [PM]
Display posts from previous:    
Reply to topic

The time now is: Today 16:03

All times are GMT + 3 Hours



You cannot post new topics in this forum
You cannot reply to topics in this forum
You cannot edit your posts in this forum
You cannot delete your posts in this forum
You cannot vote in polls in this forum
You cannot attach files in this forum
You cannot download files in this forum