Today is a free download without charge Download

Миссия невыполнима: Протокол Фантом / Mission: Impossible - Ghost Protocol (Брэд Бёрд) [2011 г., боевик, триллер, приключения, BDRip 1080р]

Reply to topic
 
Author
Message

Meshanik ®

Gender:

Longevity: 8 years 10 months

Posts: 3866

Location: Los Angeles

Торрент-статистика

Post 30-Jul-2012 22:53

[Quote]

Год выпуска: 2011
Страна: США, ОАЭ
Жанр: боевик, триллер, приключения
Продолжительность: 02:12:56
Перевод: Профессиональный (полное дублирование)
Субтитры: English (Forced), English, English (SDH), Russian (Forced), Ukranian(Forced)
Режиссер: Брэд Бёрд
В ролях: Том Круз, Джереми Реннер, Саймон Пегг, Пола Пэттон, Микаэл Нюквист, Владимир Машков, Самули Эдельманн, Иван Шведов, Анил Капур, Леа Сейду
Описание:
Специальный агент отряда «Миссия невыполнима» Итан Хант и его коллеги несправедливо обвинены в причастности к взрыву Кремля. Президент инициирует «Протокол Фантом», в результате которого спецподразделение ликвидировано, и Итан остается без какой-либо поддержки. Он намерен очистить свое доброе имя и предотвратить новую атаку, но делать это ему придется вместе с командой коллег, истинных мотивов которых он до конца не знает.- -
Качество: BDRip 1080p
Формат: MKV
Видео кодек: MPEG4 Video (H264)
Аудио кодек: AC3
Видео: 1920x800 at 23.976 fps, [url=mailto:[email protected]][email protected][/url], 2pass, ~12500 kbps avg
Аудио: Russian: 48 kHz, AC3, 3/2 (L,C,R,l,r) + LFE ch, ~448.00 kbps avg Дубляж, R5
Аудио: English: 48 kHz, AC3, 3/2 (L,C,R,l,r) + LFE ch, ~640.00 kbps avg Descriptive

MI:

General
UniqueID : 195285878701468086124399427866323097607 (0x92EAB130CA04A1D8AB0632F02FC49807)
Complete name : D:\Фильмы\Mission.Impossible-Ghost.Protocol.2011.BluRay.1080p.Rus.Eng.HDCLUB.mkv
Format : Matroska
File size : 12.7 GiB
Duration : 2h 12mn
Overall bit rate : 13.6 Mbps
Movie name : Миссия невыполнима: Протокол Фантом / Mission: Impossible - Ghost Protocol (2011)-Release for HDCLUB
Encoded date : UTC 2012-04-06 14:05:29
Writing application : mkvmerge v5.3.0 ('I could have danced') built on Feb 9 2012 10:38:07
Writing library : libebml v1.2.3 + libmatroska v1.3.0
Video
ID : 1
Format : AVC
Format/Info : Advanced Video Codec
Format profile : [url=mailto:[email protected]][email protected][/url]
Format settings, CABAC : Yes
Format settings, ReFrames : 4 frames
Format settings, GOP : M=1, N=16
Codec ID : V_MPEG4/ISO/AVC
Duration : 2h 12mn
Bit rate : 12.5 Mbps
Width : 1 920 pixels
Height : 800 pixels
Display aspect ratio : 2.40:1
Frame rate : 23.976 fps
Color space : YUV
Chroma subsampling : 4:2:0
Bit depth : 8 bits
Scan type : Progressive
Bits/(Pixel*Frame) : 0.341
Stream size : 11.4 GiB (90%)
Title : Release for HDCLUB
Writing library : x264 core 120 r2146 bcd41db
Encoding settings : cabac=1 / ref=4 / deblock=1:-3:-3 / analyse=0x3:0x113 / me=umh / subme=11 / psy=1 / psy_rd=1.05:0.10 / mixed_ref=1 / me_range=32 / chroma_me=1 / trellis=2 / 8x8dct=1 / cqm=0 / deadzone=21,11 / fast_pskip=0 / chroma_qp_offset=-2 / threads=8 / sliced_threads=0 / nr=0 / decimate=1 / interlaced=0 / bluray_compat=0 / constrained_intra=0 / bframes=6 / b_pyramid=2 / b_adapt=2 / b_bias=0 / direct=3 / weightb=1 / open_gop=0 / weightp=2 / keyint=250 / keyint_min=23 / scenecut=40 / intra_refresh=0 / rc_lookahead=60 / rc=2pass / mbtree=1 / bitrate=12546 / ratetol=1.0 / qcomp=0.70 / qpmin=0 / qpmax=69 / qpstep=4 / cplxblur=20.0 / qblur=0.5 / vbv_maxrate=40000 / vbv_bufsize=40000 / nal_hrd=none / ip_ratio=1.40 / aq=2:0.90
Language : English
Audio #1
ID : 2
Format : AC-3
Format/Info : Audio Coding 3
Mode extension : CM (complete main)
Codec ID : A_AC3
Duration : 2h 12mn
Bit rate mode : Constant
Bit rate : 448 Kbps
Channel(s) : 6 channels
Channel positions : Front: L C R, Side: L R, LFE
Sampling rate : 48.0 KHz
Bit depth : 16 bits
Compression mode : Lossy
Stream size : 426 MiB (3%)
Title : 3/2+1
Language : Russian
Audio #2
ID : 3
Format : AC-3
Format/Info : Audio Coding 3
Mode extension : CM (complete main)
Codec ID : A_AC3
Duration : 2h 12mn
Bit rate mode : Constant
Bit rate : 640 Kbps
Channel(s) : 6 channels
Channel positions : Front: L C R, Side: L R, LFE
Sampling rate : 48.0 KHz
Bit depth : 16 bits
Compression mode : Lossy
Stream size : 609 MiB (5%)
Title : 3/2+1
Language : English
Text #1
ID : 4
Format : UTF-8
Codec ID : S_TEXT/UTF8
Codec ID/Info : UTF-8 Plain Text
Language : Russian
Text #2
ID : 5
Format : UTF-8
Codec ID : S_TEXT/UTF8
Codec ID/Info : UTF-8 Plain Text
Language : Ukrainian
Text #3
ID : 6
Format : UTF-8
Codec ID : S_TEXT/UTF8
Codec ID/Info : UTF-8 Plain Text
Language : English
Text #4
ID : 7
Format : UTF-8
Codec ID : S_TEXT/UTF8
Codec ID/Info : UTF-8 Plain Text
Language : English
Text #5
ID : 8
Format : UTF-8
Codec ID : S_TEXT/UTF8
Codec ID/Info : UTF-8 Plain Text
Language : English
Menu
00:00:00.000 : en:Chapter 00
00:04:41.906 : en:Chapter 01
00:11:28.895 : en:Chapter 02
00:20:01.950 : en:Chapter 03
00:27:35.320 : en:Chapter 04
00:33:28.172 : en:Chapter 05
00:38:18.087 : en:Chapter 06
00:44:46.100 : en:Chapter 07
00:51:37.219 : en:Chapter 08
00:56:05.153 : en:Chapter 09
01:02:50.183 : en:Chapter 10
01:09:17.820 : en:Chapter 11
01:16:32.379 : en:Chapter 12
01:22:18.515 : en:Chapter 13
01:31:17.054 : en:Chapter 14
01:35:57.376 : en:Chapter 15
01:42:49.913 : en:Chapter 16
01:51:01.780 : en:Chapter 17
01:58:26.390 : en:Chapter 18
02:05:58.842 : en:Chapter 19

Скриншоты:

         


Last edited by Meshanik on 2012-07-30 23:33; edited 1 time in total
Other forum [Profile] [PM]
Display posts from previous:    
Reply to topic

The time now is: Today 11:14

All times are GMT + 3 Hours



You cannot post new topics in this forum
You cannot reply to topics in this forum
You cannot edit your posts in this forum
You cannot delete your posts in this forum
You cannot vote in polls in this forum
You cannot attach files in this forum
You cannot download files in this forum