Today is a free download without charge Download

Гнев Титанов / Wrath of the Titans [ Джонатан Либесман (2012) фэнтези, боевик, приключения, BDRip 720p] Лицензия

Reply to topic
 
Author
Message

Delia ®

Gender:

Longevity: 10 years

Posts: 1821

Торрент-статистика

Post 30-Jul-2012 22:33

[Quote]

Гнев Титанов / Wrath of the Titans«Ощути их ярость»-
Год выпуска: 2012
Страна: США
Жанр: фэнтези, боевик, приключения, ...
Продолжительность: 01:39:31
Перевод: Профессиональный (Полное дублирование) [Лицензия]
Режиссер: Джонатан Либесман
Сценарий: Дэн Мазо, Дэвид Джонсон, Беверли Кросс, ...
Продюсер: Бэзил Иваник, Полли Коэн, Кевин Де Ла Ной, ...
Оператор: Бен Дэвис
Композитор: Хавьер Наваррете
Художник: Чарльз Вуд, Томас Браун, Рэй Чан, ...
Монтаж: Мартин Уолш
В ролях: Сэм Уортингтон (Sam Worthington), Лиам Нисон (Liam Neeson), Рэйф Файнс (Ralph Fiennes), Эдгар Рамирез (Edgar Ramirez), Тоби Кеббелл (Toby Kebbell), Розамунд Пайк (Rosamund Pike), Билл Найи (Bill Nighy), Дэнни Хьюстон (Danny Houston), Джон Белл (John Bell), Лили Джеймс (Lily James), Алехандро Нараньо (Alejandro Naranjo), Freddy Drabble, Кэтрин Карпентер (Kathryn Carpenter), Мэтт Милн (Matt Milne), Кетт Тортон (Kett Turton), Шинед Кьюсак (Sinead Cusack), Спенсер Уидлинг (Spencer Wilding), Хуан Рейс (Juan Reyes), Jorge Guimera, Asier Macazaga
Описание: Прошло десять лет после героического поражения Персеем морского чудовища Кракена, теперь он живет спокойной жизнью деревенского рыбака и воспитывает своего 10-летнего сына.Тем временем, бушует борьба за превосходство между Богами и Титанами. Опасно ослабленные нехваткой человеческой любви и преданности, Боги теряют контроль над заключенными в тюрьму Титанами и их свирепым лидером, Кроносом, отцом правящих братьев Зевса, Аида и Посейдона. Давным-давно триумвират сверг своего сильного отца, отправив его гнить в мрачную пропасть Тартар, темницу, находящуюся в глубоких пределах подземного мира.Персей не может остаться в стороне, когда Аид вместе с сыном Зевса, Аресом, заключают сделку с Кроносом, чтобы вместе уничтожить Зевса. Сила Титанов становится ещё больше, в то время как Зевс теряет свою мощь и власть, а по Земле раскидывается ад подземного мира.Вместе с Андромедой, полубогом Агенором, сыном Посейдона и низвергнутым богом Гефестом,- Персей отправляется в опасное и отважное путешествие в подземный мир, чтобы спасти Зевса, свергнуть Титанов и сохранить людской род.
Бюджет: $150 000 000
Сборы в США: $83 670 083
Сборы в мире: + $218 300 000 = $301 970 083
Сборы в России: $22 324 540
Зрители: 3.78 млн 2.59 млн 2.44 млн
Премьера (мир): 28 марта 2012, ...
Премьера (РФ): 29 марта 2012, «Каро-Премьер» 3D
Релиз на DVD: 12 июля 2012, «CP Дистрибуция», ...
Релиз на Blu-Ray: 12 июля 2012, «CP Дистрибуция», ...
Рейтинг MPAA:
Формат: MKV
Качество: BDRip 720p
Видео: 1280x720 (1.77:1), 23.976 fps, x26[email protected], crf, ~4465 kbps avg, 0.202 bit/pixel
Аудио #1: 48 kHz, AC3 Dolby Digital, 3/2 (L,C,R,l,r) + LFE ch, 448 kbps |DUB| BD EUR
Аудио #2: 48 kHz, AC3 , 3/2 (L,C,R,l,r) + LFE ch, ~448 kbps avg (RUS) В. Замез
Аудио #3: 48 kHz, AC3 Dolby Digital, 3/2 (L,C,R,l,r) + LFE ch, 448 kbps |ENG|
Аудио #4: 48 kHz, AC3 , 3/2 (L,C,R,l,r) + LFE ch, ~448 kbps avg (UKR) BD EUR
Субтитры:Русские (Воронин), Английские SDH -- --

log x264/Media Info

Код:
--[NoImage] x264 [info]: frame I:928 Avg QP:19.00 size:121583
---[NoImage] x264 [info]: frame P:35059 Avg QP:22.00 size: 42387
---[NoImage] x264 [info]: frame B:107198 Avg QP:23.73 size: 16800
---[NoImage] x264 [info]: consecutive B-frames: 2.9% 3.9% 8.1% 41.7% 11.7% 19.4% 4.8% 7.1% 0.3% 0.1% 0.1% 0.2% 0.0%
---[NoImage] x264 [info]: mb I I16..4: 13.7% 74.6% 11.6%
---[NoImage] x264 [info]: mb P I16..4: 3.0% 15.7% 1.7% P16..4: 38.0% 17.8% 9.2% 0.0% 0.0% skip:14.6%
---[NoImage] x264 [info]: mb B I16..4: 0.1% 1.3% 0.2% B16..8: 42.0% 8.5% 2.7% direct: 7.5% skip:37.7% L0:41.7% L1:49.1% BI: 9.2%
---[NoImage] x264 [info]: 8x8 transform intra:77.6% inter:66.9%
---[NoImage] x264 [info]: coded y,uvDC,uvAC intra: 81.5% 80.7% 51.1% inter: 28.6% 27.3% 2.4%
---[NoImage] x264 [info]: i16 v,h,dc,p: 28% 15% 8% 50%
---[NoImage] x264 [info]: i8 v,h,dc,ddl,ddr,vr,hd,vl,hu: 6% 6% 4% 11% 17% 14% 16% 12% 13%
---[NoImage] x264 [info]: i4 v,h,dc,ddl,ddr,vr,hd,vl,hu: 7% 5% 2% 10% 18% 15% 16% 12% 14%
---[NoImage] x264 [info]: i8c dc,h,v,p: 41% 22% 17% 21%
---[NoImage] x264 [info]: Weighted P-Frames: Y:22.7% UV:15.1%
---[NoImage] x264 [info]: ref P L0: 46.8% 13.3% 17.4% 6.5% 4.6% 3.5% 3.5% 1.9% 1.7% 0.6% 0.1%
---[NoImage] x264 [info]: ref B L0: 82.9% 8.2% 3.7% 1.9% 1.2% 1.0% 0.9% 0.3%
---[NoImage] x264 [info]: ref B L1: 95.2% 4.8%
---[NoImage] x264 [info]: kb/s:4554.31
---[NoImage] encoded 143185 frames, 5.83 fps, 4554.31 kb/s
--[Information] Final statistics
---[Information] [15.06.2012 6:52:25] Constant Quantizer Mode: Quantizer 22 computed...
---[Information] [15.06.2012 6:52:25] Video Bitrate Obtained (approximate): 4555 kbit/s
--------------------------------------------------------------------------------
Полное имя Gnev.titanov.2012.BDRip.720p.H264.AC3.DTS.-HQCLUB.mkv
Формат : Matroska
Версия формата : Version 2
Размер файла : 5,15 Гбайт
Продолжительность : 1 ч. 39 м.
Общий поток : 7410 Кбит/сек
Дата кодирования : UTC 2012-07-08 08:33:35
Программа кодирования : mkvmerge v5.5.0 ('Healer') built on Apr 6 2012 21:43:24
Библиотека кодирования : libebml v1.2.3 + libmatroska v1.3.0
Видео
Идентификатор : 1
Формат : AVC
Формат/Информация : Advanced Video Codec
Профиль формата : [email protected]
Параметр CABAC формата : Да
Параметр ReFrames формата : 9 кадров
Идентификатор кодека : V_MPEG4/ISO/AVC
Продолжительность : 1 ч. 39 м.
Битрейт : 4409 Кбит/сек
Ширина : 1280 пикселей
Высота : 720 пикселей
Соотношение сторон : 16:9
Частота кадров : 23,976 кадра/сек
Цветовое пространство : YUV
Субдискретизация насыщенности : 4:2:0
Битовая глубина : 8 бит
Тип развёртки : Прогрессивная
Бит/(Пиксели*Кадры) : 0.200
Размер потока : 3,07 Гбайт (60%)
Заголовок : Гнев Титанов / Wrath of the Titans (2012) BDRip 720p | HQCLUB
Библиотека кодирования : x264 core 120 r2164 da19765
Настройки программы : cabac=1 / ref=9 / deblock=1:-3:-3 / analyse=0x3:0x113 / me=umh / subme=9 / psy=1 / psy_rd=1.00:0.05 / mixed_ref=1 / me_range=64 / chroma_me=1 / trellis=2 / 8x8dct=1 / cqm=0 / deadzone=21,11 / fast_pskip=1 / chroma_qp_offset=-3 / threads=6 / sliced_threads=0 / nr=0 / decimate=1 / interlaced=0 / bluray_compat=0 / constrained_intra=0 / bframes=12 / b_pyramid=2 / b_adapt=2 / b_bias=0 / direct=1 / weightb=1 / open_gop=0 / weightp=2 / keyint=230 / keyint_min=22 / scenecut=40 / intra_refresh=0 / rc=cqp / mbtree=0 / qp=22 / ip_ratio=1.40 / pb_ratio=1.30 / aq=0
Язык : English
Default : Да
Forced : Нет
Аудио #1
Идентификатор : 2
Формат : AC-3
Формат/Информация : Audio Coding 3
Расширение режима : CM (complete main)
Параметр Endianness формата : Big
Идентификатор кодека : A_AC3
Продолжительность : 1 ч. 39 м.
Вид битрейта : Постоянный
Битрейт : 448 Кбит/сек
Каналы : 6 каналов
Расположение каналов : Front: L C R, Side: L R, LFE
Частота : 48,0 КГц
Битовая глубина : 16 бит
Метод сжатия : С потерями
Размер потока : 319 Мбайт (6%)
Заголовок : Дубляж (BD EUR) AC3 5.1 @ 448 kbps
Язык : Russian
Default : Да
Forced : Да
Аудио #2
Идентификатор : 3
Формат : AC-3
Формат/Информация : Audio Coding 3
Расширение режима : CM (complete main)
Параметр Endianness формата : Big
Идентификатор кодека : A_AC3
Продолжительность : 1 ч. 39 м.
Вид битрейта : Постоянный
Битрейт : 448 Кбит/сек
Каналы : 6 каналов
Расположение каналов : Front: L C R, Side: L R, LFE
Частота : 48,0 КГц
Битовая глубина : 16 бит
Метод сжатия : С потерями
Размер потока : 319 Мбайт (6%)
Заголовок : Одноголосый (В. Замез) AC3 5.1 @ 448 kbps
Язык : Russian
Default : Нет
Forced : Да
Аудио #3
Идентификатор : 4
Формат : DTS
Формат/Информация : Digital Theater Systems
Идентификатор кодека : A_DTS
Продолжительность : 1 ч. 39 м.
Вид битрейта : Постоянный
Битрейт : 1510 Кбит/сек
Каналы : 6 каналов
Расположение каналов : Front: L C R, Side: L R, LFE
Частота : 48,0 КГц
Битовая глубина : 24 бит
Метод сжатия : С потерями
Размер потока : 1,05 Гбайт (20%)
Заголовок : Оригинал DTS 5.1 @ 1509 kbps
Язык : English
Default : Нет
Forced : Да
Аудио #4
Идентификатор : 5
Формат : AC-3
Формат/Информация : Audio Coding 3
Расширение режима : CM (complete main)
Параметр Endianness формата : Big
Идентификатор кодека : A_AC3
Продолжительность : 1 ч. 39 м.
Вид битрейта : Постоянный
Битрейт : 448 Кбит/сек
Каналы : 6 каналов
Расположение каналов : Front: L C R, Side: L R, LFE
Частота : 48,0 КГц
Битовая глубина : 16 бит
Метод сжатия : С потерями
Размер потока : 319 Мбайт (6%)
Заголовок : Дубляж (BD EUR) AC3 5.1 @ 448 kbps
Язык : Ukrainian
Default : Нет
Forced : Да
Текст #1
Идентификатор : 6
Формат : UTF-8
Идентификатор кодека : S_TEXT/UTF8
Идентификатор кодека/Информация : UTF-8 Plain Text
Заголовок : Full Voronin
Язык : Russian
Default : Да
Forced : Да
Текст #2
Идентификатор : 7
Формат : UTF-8
Идентификатор кодека : S_TEXT/UTF8
Идентификатор кодека/Информация : UTF-8 Plain Text
Заголовок : SDH
Язык : English
Default : Нет
Forced : Да
Меню
00:00:00.000 : en:00:00:00.000
00:09:24.856 : en:00:09:24.856
00:20:07.123 : en:00:20:07.123
00:30:53.059 : en:00:30:53.059
00:40:02.316 : en:00:40:02.316
00:48:46.882 : en:00:48:46.882
01:00:21.743 : en:01:00:21.743
01:10:16.420 : en:01:10:16.420
01:19:18.712 : en:01:19:18.712
01:30:33.803 : en:01:30:33.803

Знаете ли Вы, что...

» Съёмки фильма проходили в Лондоне, Южном Уэльсе и на Канарском острове Тенерифе.
» На роль Андромеды рассматривались Хэйли Этвелл, Джорджина Хэйг, Джанет Монтгомери, Доминик МакЭллигот, Клеманс Поэзи.

Скриншоты

   
   

_________________
Человек – это канат, натянутый между животным и сверхчеловеком, – канат над пропастью.
В человеке ценно то, что он мост, а не цель. Фридрих Ницше
Other forum [Profile] [PM]

pecypc

Longevity: 8 years 8 months

Posts: 2

Торрент-статистика

Post 29-Aug-2012 22:13 (after 29 days)

[Quote]

Скажите пжлстаа , а вот так как вы указали про дорожку:
Аудио #1: 48 kHz, AC3 Dolby Digital, 3/2 (L,C,R,l,r) + LFE ch, 448 kbps |DUB| BD EUR
это означает что русский дубляж? или в этом релизе только замес переводит?
Other forum [Profile] [PM]
Display posts from previous:    
Reply to topic

The time now is: Today 04:36

All times are GMT + 3 Hours



You cannot post new topics in this forum
You cannot reply to topics in this forum
You cannot edit your posts in this forum
You cannot delete your posts in this forum
You cannot vote in polls in this forum
You cannot attach files in this forum
You cannot download files in this forum