Today is a free download without charge Download

Гнев Титанов / Wrath of the Titans [ Джонатан Либесман (2012) фэнтези, боевик, приключения, BDRip 1080p] Лицензия

Reply to topic
 
Author
Message

Delia ®

Gender:

Longevity: 10 years

Posts: 1821

Торрент-статистика

Post 30-Jul-2012 22:12

[Quote]

Гнев Титанов / Wrath of the Titans«Ощути их ярость»-
Год выпуска: 2012
Страна: США
Жанр: фэнтези, боевик, приключения, ...
Продолжительность: 01:39:31
Перевод: Профессиональный (Полное дублирование) [Лицензия]
Режиссер: Джонатан Либесман
Сценарий: Дэн Мазо, Дэвид Джонсон, Беверли Кросс, ...
Продюсер: Бэзил Иваник, Полли Коэн, Кевин Де Ла Ной, ...
Оператор: Бен Дэвис
Композитор: Хавьер Наваррете
Художник: Чарльз Вуд, Томас Браун, Рэй Чан, ...
Монтаж: Мартин Уолш
В ролях: Сэм Уортингтон (Sam Worthington), Лиам Нисон (Liam Neeson), Рэйф Файнс (Ralph Fiennes), Эдгар Рамирез (Edgar Ramirez), Тоби Кеббелл (Toby Kebbell), Розамунд Пайк (Rosamund Pike), Билл Найи (Bill Nighy), Дэнни Хьюстон (Danny Houston), Джон Белл (John Bell), Лили Джеймс (Lily James), Алехандро Нараньо (Alejandro Naranjo), Freddy Drabble, Кэтрин Карпентер (Kathryn Carpenter), Мэтт Милн (Matt Milne), Кетт Тортон (Kett Turton), Шинед Кьюсак (Sinead Cusack), Спенсер Уидлинг (Spencer Wilding), Хуан Рейс (Juan Reyes), Jorge Guimera, Asier Macazaga
Описание: Прошло десять лет после героического поражения Персеем морского чудовища Кракена, теперь он живет спокойной жизнью деревенского рыбака и воспитывает своего 10-летнего сына.Тем временем, бушует борьба за превосходство между Богами и Титанами. Опасно ослабленные нехваткой человеческой любви и преданности, Боги теряют контроль над заключенными в тюрьму Титанами и их свирепым лидером, Кроносом, отцом правящих братьев Зевса, Аида и Посейдона. Давным-давно триумвират сверг своего сильного отца, отправив его гнить в мрачную пропасть Тартар, темницу, находящуюся в глубоких пределах подземного мира.Персей не может остаться в стороне, когда Аид вместе с сыном Зевса, Аресом, заключают сделку с Кроносом, чтобы вместе уничтожить Зевса. Сила Титанов становится ещё больше, в то время как Зевс теряет свою мощь и власть, а по Земле раскидывается ад подземного мира.Вместе с Андромедой, полубогом Агенором, сыном Посейдона и низвергнутым богом Гефестом,- Персей отправляется в опасное и отважное путешествие в подземный мир, чтобы спасти Зевса, свергнуть Титанов и сохранить людской род.
Бюджет: $150 000 000
Сборы в США: $83 670 083
Сборы в мире: + $218 300 000 = $301 970 083
Сборы в России: $22 324 540
Зрители: 3.78 млн 2.59 млн 2.44 млн
Премьера (мир): 28 марта 2012, ...
Премьера (РФ): 29 марта 2012, «Каро-Премьер» 3D
Релиз на DVD: 12 июля 2012, «CP Дистрибуция», ...
Релиз на Blu-Ray: 12 июля 2012, «CP Дистрибуция», ...
Рейтинг MPAA:
Формат: MKV
Качество: BDRip 1080p
Видео: 1920x1080/16:9/23.976 fps/12.7 Mbps/0.255 Bits/(Pixel*Frame)
Аудио #1: 48 kHz, AC3 Dolby Digital, 3/2 (L,C,R,l,r) + LFE ch, 448 kbps |DUB|
Аудио #2: 48 kHz, AC3 Dolby Digital, 3/2 (L,C,R,l,r) + LFE ch, 448 kbps |ENG|
Субтитры: Русские/Английские UTF-8 (full) -- --

log x264/Media Info

Код:
avs [info]: 1920x1080p 1:1 @ 2500000/104271 fps (cfr)
x264 [info]: using SAR=1/1
x264 [info]: using cpu capabilities: MMX2 SSE2Fast SSSE3 FastShuffle SSE4.2
x264 [info]: profile High, level 4.1
x264 [info]: frame I:883 Avg QP:18.60 size:252736
x264 [info]: frame P:42952 Avg QP:21.80 size:100849
x264 [info]: frame B:99350 Avg QP:23.86 size: 49478
x264 [info]: consecutive B-frames: 4.4% 9.1% 5.7% 74.9% 2.6% 1.1% 0.5% 1.5% 0.0% 0.0%
x264 [info]: mb I I16..4: 7.8% 77.9% 14.3%
x264 [info]: mb P I16..4: 2.5% 26.5% 1.3% P16..4: 38.3% 18.0% 6.8% 0.0% 0.0% skip: 6.6%
x264 [info]: mb B I16..4: 0.2% 3.3% 0.2% B16..8: 46.4% 13.9% 3.1% direct: 9.0% skip:23.9% L0:50.0% L1:39.4% BI:10.6%
x264 [info]: 8x8 transform intra:87.6% inter:77.3%
x264 [info]: direct mvs spatial:98.5% temporal:1.5%
x264 [info]: coded y,uvDC,uvAC intra: 86.8% 82.1% 46.8% inter: 43.7% 37.0% 8.4%
x264 [info]: i16 v,h,dc,p: 28% 12% 9% 51%
x264 [info]: i8 v,h,dc,ddl,ddr,vr,hd,vl,hu: 8% 6% 13% 10% 14% 12% 13% 11% 13%
x264 [info]: i4 v,h,dc,ddl,ddr,vr,hd,vl,hu: 12% 8% 5% 9% 14% 13% 14% 10% 14%
x264 [info]: i8c dc,h,v,p: 45% 21% 17% 16%
x264 [info]: Weighted P-Frames: Y:4.3% UV:2.1%
x264 [info]: ref P L0: 58.9% 13.3% 18.7% 8.0% 1.1% 0.0%
x264 [info]: ref B L0: 92.4% 6.3% 1.3%
x264 [info]: ref B L1: 96.4% 3.6%
x264 [info]: kb/s:12686.45
x264 [total]: encoded 143185 frames, 1.04 fps, 12686.45 kb/s
--------------------------------------------------------------------------------
Format : Matroska
Format version : Version 2
File size : 9.44 GiB
Duration : 1h 39mn
Overall bit rate : 13.6 Mbps
Encoded date : UTC 2012-07-08 10:45:31
Writing application : mkvmerge v4.0.0 ('The Stars were mine') built on Jun 6 2010 16:18:42
Writing library : libebml v1.0.0 + libmatroska v1.0.0
Video
ID : 1
Format : AVC
Format/Info : Advanced Video Codec
Format profile : [email protected]
Format settings, CABAC : Yes
Format settings, ReFrames : 4 frames
Codec ID : V_MPEG4/ISO/AVC
Duration : 1h 39mn
Bit rate : 12.7 Mbps
Width : 1 920 pixels
Height : 1 080 pixels
Display aspect ratio : 16:9
Frame rate : 23.976 fps
Color space : YUV
Chroma subsampling : 4:2:0
Bit depth : 8 bits
Scan type : Progressive
Bits/(Pixel*Frame) : 0.255
Stream size : 8.63 GiB (91%)
Writing library : x264 core 119 r2106 07efeb4
Encoding settings : cabac=1 / ref=4 / deblock=1:-3:-3 / analyse=0x3:0x113 / me=umh / subme=10 / psy=1 / psy_rd=0.95:0.10 / mixed_ref=1 / me_range=32 / chroma_me=1 / trellis=2 / 8x8dct=1 / cqm=0 / deadzone=21,11 / fast_pskip=0 / chroma_qp_offset=-3 / threads=6 / sliced_threads=0 / nr=0 / decimate=0 / interlaced=0 / bluray_compat=0 / constrained_intra=0 / bframes=9 / b_pyramid=2 / b_adapt=2 / b_bias=0 / direct=3 / weightb=1 / open_gop=0 / weightp=2 / keyint=240 / keyint_min=23 / scenecut=40 / intra_refresh=0 / rc_lookahead=60 / rc=2pass / mbtree=1 / bitrate=12695 / ratetol=1.0 / qcomp=0.62 / qpmin=0 / qpmax=69 / qpstep=4 / cplxblur=20.0 / qblur=0.5 / ip_ratio=1.40 / aq=1:1.00
Language : English
Default : No
Forced : No
Audio #1
ID : 2
Format : AC-3
Format/Info : Audio Coding 3
Mode extension : CM (complete main)
Format settings, Endianness : Big
Codec ID : A_AC3
Duration : 1h 39mn
Bit rate mode : Constant
Bit rate : 448 Kbps
Channel(s) : 6 channels
Channel positions : Front: L C R, Side: L R, LFE
Sampling rate : 48.0 KHz
Bit depth : 16 bits
Compression mode : Lossy
Stream size : 319 MiB (3%)
Title : Дубляж
Language : Russian
Default : Yes
Forced : No
Audio #2
ID : 3
Format : AC-3
Format/Info : Audio Coding 3
Mode extension : CM (complete main)
Format settings, Endianness : Big
Codec ID : A_AC3
Duration : 1h 39mn
Bit rate mode : Constant
Bit rate : 448 Kbps
Channel(s) : 6 channels
Channel positions : Front: L C R, Side: L R, LFE
Sampling rate : 48.0 KHz
Bit depth : 16 bits
Compression mode : Lossy
Stream size : 319 MiB (3%)
Title : Оригинал
Language : English
Default : No
Forced : No
Text #1
ID : 4
Format : UTF-8
Codec ID : S_TEXT/UTF8
Codec ID/Info : UTF-8 Plain Text
Title : full
Language : Russian
Default : Yes
Forced : No
Text #2
ID : 5
Format : UTF-8
Codec ID : S_TEXT/UTF8
Codec ID/Info : UTF-8 Plain Text
Title : full
Language : English
Default : No
Forced : No

Знаете ли Вы, что...

» Съёмки фильма проходили в Лондоне, Южном Уэльсе и на Канарском острове Тенерифе.
» На роль Андромеды рассматривались Хэйли Этвелл, Джорджина Хэйг, Джанет Монтгомери, Доминик МакЭллигот, Клеманс Поэзи.

Скриншоты

   
   

_________________
Человек – это канат, натянутый между животным и сверхчеловеком, – канат над пропастью.
В человеке ценно то, что он мост, а не цель. Фридрих Ницше
Other forum [Profile] [PM]
Display posts from previous:    
Reply to topic

The time now is: Today 09:34

All times are GMT + 3 Hours



You cannot post new topics in this forum
You cannot reply to topics in this forum
You cannot edit your posts in this forum
You cannot delete your posts in this forum
You cannot vote in polls in this forum
You cannot attach files in this forum
You cannot download files in this forum