Сегодня идет свободное скачивание без начисления Download

Младенец на $30 000 000 /(Сокровище в пелёнках) Bo bui gai wak (Бенни Чан) [2006 г., боевик, драма, комедия, BDRip 1080p]

Ответить на тему
 
Автор
Сообщение

Delia ®

Пол:

Стаж: 8 лет 11 месяцев

Сообщений: 1822

Торрент-статистика

Пост 28-Фев-2011 19:40

[Цитировать]

Младенец на $30 000 000Bo bui gai wak Год выпуска: 2006
Страна: Гонконг
Жанр: боевик, драма, комедия
Продолжительность: 128 мин.
Перевод: Профессиональный (многоголосый, закадровый)
Режиссер: Бенни Чан
Продюссер: Бенни Чан, Джеки Чан, Уилли Чан
Сценарий: Джеки Чан, Бенни Чан, Алан Юэнь
Бюджет: 8 сентября 2006
Премьера в мире: 8 сентября 2006

В ролях: Джеки Чан, Луис Ку, Шарлин Чой, Юэнь Бяо, Гао Юаньюань, Тереза Карпио, Теренс Йин, Конвой Чан Чи-Чун, Хой Линь
Описание: Для бездельника и игрока Тонгза есть только одна вещь пострашнее кредиторов под дверью — плачущий младенец. Но что если этот самый ребенок способен сделать его богатым? Сумеет ли Тонгз преодолеть свой панический страх перед памперсами, бутылочками со смесью и заунывными колыбельными?
Качество: BDRip 1080p
Формат: MKV
Видео кодек: H.264
Аудио кодек: AC3
Видео: English, 4508 Кбит/сек, 1920*816 (2,35:1), в 23,976 кадр/сек, AVC
Аудио: Russian, 448 Кбит/сек, 48,0 КГц, 16 бит, 6 канала(ов), AC-3

Media Info:

Уникальный идентификатор : 202966949862389970068638074948978211018 (0x98B2033CC637643EBAC40F2527BBF8CA)
Полное имя : E:\торрент\Bo bui gai wak (2006)BDRip 1080p.mkv
Формат : Matroska
Размер файла : 4,37 Гбайт
Продолжительность : 2 ч. 6 м.
Общий поток : 4955 Кбит/сек
Дата кодирования : UTC 2011-02-28 15:30:24
Программа кодирования : mkvmerge v4.5.0 ('Speed of Light') built on Feb 1 2011 02:10:32
Библиотека кодирования : libebml v1.2.0 + libmatroska v1.1.0
Видео
Идентификатор : 1
Формат : AVC
Формат/Информация : Advanced Video Codec
Профиль формата : [email protected]
Параметр CABAC формата : Да
Параметр ReFrames формата : 10 кадры
Идентификатор кодека : V_MPEG4/ISO/AVC
Продолжительность : 2 ч. 6 м.
Битрейт : 4508 Кбит/сек
Ширина : 1920 пикс.
Высота : 816 пикс.
Соотношение сторон : 2,35:1
Частота кадров : 23,976 кадр/сек
Цветовое пространство : YUV
Подвыборка цветности : 4:2:0
Битовая глубина : 8 бит
Тип развёртки : Прогрессивная
Бит/(Пиксели*Кадры) : 0.120
Размер потока : 3,89 Гбайт (89%)
Библиотека кодирования : x264 core 114 r1913 5fd3dce
Настройки программы : cabac=1 / ref=10 / deblock=1:-1:-1 / analyse=0x3:0x133 / me=umh / subme=7 / psy=1 / psy_rd=1.00:0.15 / mixed_ref=1 / me_range=32 / chroma_me=1 / trellis=2 / 8x8dct=1 / cqm=0 / deadzone=21,11 / fast_pskip=1 / chroma_qp_offset=-3 / threads=6 / sliced_threads=0 / nr=0 / decimate=1 / interlaced=0 / constrained_intra=0 / bframes=4 / b_pyramid=2 / b_adapt=1 / b_bias=0 / direct=1 / weightb=0 / open_gop=0 / weightp=2 / keyint=250 / keyint_min=23 / scenecut=40 / intra_refresh=0 / rc_lookahead=40 / rc=2pass / mbtree=1 / bitrate=4508 / ratetol=1.0 / qcomp=0.80 / qpmin=10 / qpmax=51 / qpstep=4 / cplxblur=20.0 / qblur=0.5 / ip_ratio=1.40 / aq=1:1.00
Язык : English
Аудио
Идентификатор : 2
Формат : AC-3
Формат/Информация : Audio Coding 3
Расширение режима : CM (complete main)
Идентификатор кодека : A_AC3
Продолжительность : 2 ч. 6 м.
Вид битрейта : Постоянный
Битрейт : 448 Кбит/сек
Канал(ы) : 6 канала(ов)
Расположение каналов : Front: L C R, Side: L R, LFE
Частота : 48,0 КГц
Битовая глубина : 16 бит
Метод сжатия : С потерями
Размер потока : 405 Мбайт (9%)
Язык : Russian

Скриншоты

        
Релиз от :

_________________
Человек – это канат, натянутый между животным и сверхчеловеком, – канат над пропастью.
В человеке ценно то, что он мост, а не цель. Фридрих Ницше


Последний раз редактировалось: Delia (2011-08-25 22:54), всего редактировалось 2 раз(а)
Вне форума [Профиль] [ЛС]
Показать сообщения:    
Ответить на тему

Текущее время: Сегодня 18:30

Часовой пояс: GMT + 3



Вы не можете начинать темы
Вы не можете отвечать на сообщения
Вы не можете редактировать свои сообщения
Вы не можете удалять свои сообщения
Вы не можете голосовать в опросах
Вы не можете прикреплять файлы к сообщениям
Вы не можете скачивать файлы