Today is a free download without charge Download

Гнев Титанов / Wrath of the Titans [ Джонатан Либесман (2012) фэнтези, боевик, приключения, BDRip] Лицензия

Reply to topic
 
Author
Message

Delia ®

Gender:

Longevity: 11 years

Posts: 1821

Торрент-статистика

Post 30-Jul-2012 21:24

[Quote]

Гнев Титанов / Wrath of the Titans«Ощути их ярость»-
Год выпуска: 2012
Страна: США
Жанр: фэнтези, боевик, приключения, ...
Продолжительность: 01:39:31
Перевод: Профессиональный (Полное дублирование) [Лицензия]
Режиссер: Джонатан Либесман
Сценарий: Дэн Мазо, Дэвид Джонсон, Беверли Кросс, ...
Продюсер: Бэзил Иваник, Полли Коэн, Кевин Де Ла Ной, ...
Оператор: Бен Дэвис
Композитор: Хавьер Наваррете
Художник: Чарльз Вуд, Томас Браун, Рэй Чан, ...
Монтаж: Мартин Уолш
В ролях: Сэм Уортингтон (Sam Worthington), Лиам Нисон (Liam Neeson), Рэйф Файнс (Ralph Fiennes), Эдгар Рамирез (Edgar Ramirez), Тоби Кеббелл (Toby Kebbell), Розамунд Пайк (Rosamund Pike), Билл Найи (Bill Nighy), Дэнни Хьюстон (Danny Houston), Джон Белл (John Bell), Лили Джеймс (Lily James), Алехандро Нараньо (Alejandro Naranjo), Freddy Drabble, Кэтрин Карпентер (Kathryn Carpenter), Мэтт Милн (Matt Milne), Кетт Тортон (Kett Turton), Шинед Кьюсак (Sinead Cusack), Спенсер Уидлинг (Spencer Wilding), Хуан Рейс (Juan Reyes), Jorge Guimera, Asier Macazaga
Описание: Прошло десять лет после героического поражения Персеем морского чудовища Кракена, теперь он живет спокойной жизнью деревенского рыбака и воспитывает своего 10-летнего сына.Тем временем, бушует борьба за превосходство между Богами и Титанами. Опасно ослабленные нехваткой человеческой любви и преданности, Боги теряют контроль над заключенными в тюрьму Титанами и их свирепым лидером, Кроносом, отцом правящих братьев Зевса, Аида и Посейдона. Давным-давно триумвират сверг своего сильного отца, отправив его гнить в мрачную пропасть Тартар, темницу, находящуюся в глубоких пределах подземного мира.Персей не может остаться в стороне, когда Аид вместе с сыном Зевса, Аресом, заключают сделку с Кроносом, чтобы вместе уничтожить Зевса. Сила Титанов становится ещё больше, в то время как Зевс теряет свою мощь и власть, а по Земле раскидывается ад подземного мира.Вместе с Андромедой, полубогом Агенором, сыном Посейдона и низвергнутым богом Гефестом,- Персей отправляется в опасное и отважное путешествие в подземный мир, чтобы спасти Зевса, свергнуть Титанов и сохранить людской род.
Бюджет: $150 000 000
Сборы в США: $83 670 083
Сборы в мире: + $218 300 000 = $301 970 083
Сборы в России: $22 324 540
Зрители: 3.78 млн 2.59 млн 2.44 млн
Премьера (мир): 28 марта 2012, ...
Премьера (РФ): 29 марта 2012, «Каро-Премьер» 3D
Релиз на DVD: 12 июля 2012, «CP Дистрибуция», ...
Релиз на Blu-Ray: 12 июля 2012, «CP Дистрибуция», ...
Рейтинг MPAA:
Формат: AVI
Качество: BDRip (источник: CHD /Blu-Ray Disc/ 1080p)
Видео: 704x400 (1.76:1), 23.976 fps, XviD build 65, 2237 kbps avg, 0.33 bit/pixel
Аудио #1: 48 kHz, AC3 Dolby Digital, 3/2 (L,C,R,l,r) + LFE ch, 448 kbps |DUB|
Аудио #2: 48 kHz, AC3 Dolby Digital, 3/2 (L,C,R,l,r) + LFE ch, 448 kbps |ENG|
Субтитры: Русские [voronine], Английские (отдельным файлом)-- --

Media Info

Код:
General
Complete name                            : E:\торрент\Gnev.Titanov.2012.DUAL.BDRip.XviD.AC3.-HELLYWOOD\Gnev.Titanov.2012.DUAL.BDRip.XviD.AC3.-HELLYWOOD.avi
Format                                   : AVI
Format/Info                              : Audio Video Interleave
Format profile                           : OpenDML
File size                                : 2.18 GiB
Duration                                 : 1h 39mn
Overall bit rate                         : 3 140 Kbps
Movie name                               : Gnev.Titanov.2012.DUAL.BDRip.XviD.AC3.-HELLYWOOD
Director                                 : Gummy
Writing application                      : VirtualDubMod 1.5.10.2 (build 2542/release)
Writing library                          : VirtualDubMod build 2542/release
Copyright                                : http://forum.hellywood.ru/forum.php
Video
ID                                       : 0
Format                                   : MPEG-4 Visual
Format profile                           : Advanced [email protected]
Format settings, BVOP                    : 2
Format settings, QPel                    : No
Format settings, GMC                     : No warppoints
Format settings, Matrix                  : Custom
Codec ID                                 : XVID
Codec ID/Hint                            : XviD
Duration                                 : 1h 39mn
Bit rate                                 : 2 227 Kbps
Width                                    : 704 pixels
Height                                   : 400 pixels
Display aspect ratio                     : 16:9
Frame rate                               : 23.976 fps
Color space                              : YUV
Chroma subsampling                       : 4:2:0
Bit depth                                : 8 bits
Scan type                                : Progressive
Compression mode                         : Lossy
Bits/(Pixel*Frame)                       : 0.330
Stream size                              : 1.55 GiB (71%)
Writing library                          : XviD 65
Audio #1
ID                                       : 1
Format                                   : AC-3
Format/Info                              : Audio Coding 3
Mode extension                           : CM (complete main)
Codec ID                                 : 2000
Duration                                 : 1h 39mn
Bit rate mode                            : Constant
Bit rate                                 : 448 Kbps
Channel(s)                               : 6 channels
Channel positions                        : Front: L C R, Side: L R, LFE
Sampling rate                            : 48.0 KHz
Bit depth                                : 16 bits
Compression mode                         : Lossy
Stream size                              : 319 MiB (14%)
Alignment                                : Split accross interleaves
Interleave, duration                     : 42 ms (1.00 video frame)
Interleave, preload duration             : 500 ms
Audio #2
ID                                       : 2
Format                                   : AC-3
Format/Info                              : Audio Coding 3
Mode extension                           : CM (complete main)
Codec ID                                 : 2000
Duration                                 : 1h 39mn
Bit rate mode                            : Constant
Bit rate                                 : 448 Kbps
Channel(s)                               : 6 channels
Channel positions                        : Front: L C R, Side: L R, LFE
Sampling rate                            : 48.0 KHz
Bit depth                                : 16 bits
Compression mode                         : Lossy
Stream size                              : 319 MiB (14%)
Alignment                                : Split accross interleaves
Interleave, duration                     : 42 ms (1.00 video frame)
Interleave, preload duration             : 500 ms

Знаете ли Вы, что...

» Съёмки фильма проходили в Лондоне, Южном Уэльсе и на Канарском острове Тенерифе.
» На роль Андромеды рассматривались Хэйли Этвелл, Джорджина Хэйг, Джанет Монтгомери, Доминик МакЭллигот, Клеманс Поэзи.

Скриншоты

   
   

_________________
Человек – это канат, натянутый между животным и сверхчеловеком, – канат над пропастью.
В человеке ценно то, что он мост, а не цель. Фридрих Ницше


Last edited by Delia on 2012-07-30 22:11; edited 1 time in total
Other forum [Profile] [PM]

KirovSOFT

Gender:

Longevity: 9 years 2 months

Posts: 998

Location: Кировская область -Оричи

Торрент-статистика

Post 30-Jul-2012 21:39 (after 14 minutes)

[Quote]

Delia, А Blu-Ray ЕСТЬ У ВАС ?

_________________
Other forum [Profile] [PM]

Delia ®

Gender:

Longevity: 11 years

Posts: 1821

Торрент-статистика

Post 30-Jul-2012 22:15 (after 36 minutes)

[Quote]

Нет , я не делала рип этого фильма . А Remux есть , сами знаете где. Smile

_________________
Человек – это канат, натянутый между животным и сверхчеловеком, – канат над пропастью.
В человеке ценно то, что он мост, а не цель. Фридрих Ницше
Other forum [Profile] [PM]
Display posts from previous:    
Reply to topic

The time now is: Today 11:21

All times are GMT + 3 Hours



You cannot post new topics in this forum
You cannot reply to topics in this forum
You cannot edit your posts in this forum
You cannot delete your posts in this forum
You cannot vote in polls in this forum
You cannot attach files in this forum
You cannot download files in this forum