Today is a free download without charge Download

На страже смерти / Deathwatch (2002) DVDRip

Reply to topic
 
Author
Message

Delia ®

Gender:

Longevity: 9 years 1 month

Posts: 1821

Торрент-статистика

Post 28-Feb-2011 18:07

[Quote]

На страже смерти / Deathwatch (2002) DVDRip- Год выпуска: 2002
Жанр: Драма, Ужасы, Триллер
Продолжительность: 01:31:25
Перевод: Многоголосый закадровый
Дата мировой премьеры: 6 октября 2002
Дата российской премьеры: 2 октября 2003
Режиссер: Майкл Дж. Бассетт
Актеры: Джейми Белл,Руайдри Конрой,Майк Дауни,Лоуренс Фокс,Роман Горак,Дин Леннокс Келли,Крис Маршалл,Ганс Мэтисон,Хью О’Конор
Описание фильма:
1917 год. На западном фронте без перемен. Миллионы солдат немецкой и союзных армий захлебываются в крови на изрытых воронками равнинах северной Европы, превращенных в гигантскую общую могилу. После жестокого боя 16-летний рядовой британской армии Чарли Шекспир и несколько его товарищей заблудились в густом тумане и оказались в тылу врага. Их единственное убежище - заброшенные подземные ходы. Но это еще не самое страшное. Одного за другим британцев охватывают приступы безумия. Им кажется, что в подземных лабиринтах прячется невидимый враг. И этот враг намного опасней, чем солдаты противника..

Видеокодек: DivX 5
Битрейт видео: ~1615 kbps avg
Размер кадра: 720x304
Качество видео: DVDRip
Аудиокодек и битрейт аудио:
Аудио #1: AC3 Dolby Digital, 3/2 (L,C,R,l,r) + LFE ch, ~384.00 kbps avg
Аудио #2: MP3, 2 ch, ~128.00 kbps avg

MediaInfo

Общее
Полное имя : D:\Торрент\Фильмы\На страже смерти (2002)\Na.strazhe.smerti.(RUS.ENG).DVDRip.by GeBorZa.avi
Формат : AVI
Формат/Информация : Audio Video Interleave
Размер файла : 1,37 Гбайт
Продолжительность : 1 ч. 31 м.
Общий поток : 2143 Кбит/сек
Название фильма : Deathwatch
Тема : Deathwatch
Программа кодирования : Nandub v1.0rc2
Библиотека кодирования : Nandub build 1852/release
Примечание : DVDRip by gera
Видео
Идентификатор : 0
Формат : MPEG-4 Visual
Параметр BVOP формата : Нет
Параметр QPel формата : Нет
Параметр GMC формата : Без точки перехода
Параметр матрицы формата : Default (H.263)
Идентификатор кодека : DX50
Идентификатор кодека/Подсказка : DivX 5
Продолжительность : 1 ч. 31 м.
Битрейт : 1615 Кбит/сек
Ширина : 720 пикс.
Высота : 304 пикс.
Соотношение сторон : 2,35:1
Частота кадров : 25,000 кадр/сек
Цветовое пространство : YUV
Подвыборка цветности : 4:2:0
Битовая глубина : 8 бит
Тип развёртки : Прогрессивная
Метод сжатия : С потерями
Бит/(Пиксели*Кадры) : 0.295
Размер потока : 1,03 Гбайт (75%)
Библиотека кодирования : DivX 6.4.0 (UTC 2006-10-03)
Аудио #1
Идентификатор : 1
Формат : AC-3
Формат/Информация : Audio Coding 3
Расширение режима : CM (complete main)
Идентификатор кодека : 2000
Продолжительность : 1 ч. 31 м.
Вид битрейта : Постоянный
Битрейт : 384 Кбит/сек
Канал(ы) : 6 канала(ов)
Расположение каналов : Front: L C R, Side: L R, LFE
Частота : 48,0 КГц
Битовая глубина : 16 бит
Метод сжатия : С потерями
Размер потока : 251 Мбайт (18%)
Выравнивание : Соединение по промежуткам
Продолжительность промежутка : 64 мс. (1,60 видеокадров)
Время предзагрузки промежутка : 64 ms
Аудио #2
Идентификатор : 2
Формат : MPEG Audio
Версия формата : Version 1
Профиль формата : Layer 3
Режим : Joint stereo
Расширение режима : MS Stereo
Идентификатор кодека : 55
Идентификатор кодека/Подсказка : MP3
Продолжительность : 1 ч. 31 м.
Вид битрейта : Постоянный
Битрейт : 128 Кбит/сек
Канал(ы) : 2 канала(ов)
Частота : 48,0 КГц
Метод сжатия : С потерями
Задержка видео : 21 мс.
Размер потока : 83,7 Мбайт (6%)
Выравнивание : Соединение по промежуткам
Продолжительность промежутка : 24 мс. (0,60 видеокадр)
Время предзагрузки промежутка : 1048 ms

Скриншоты:

     

_________________
Человек – это канат, натянутый между животным и сверхчеловеком, – канат над пропастью.
В человеке ценно то, что он мост, а не цель. Фридрих Ницше


Last edited by Delia on 2011-03-05 00:47; edited 1 time in total
Other forum [Profile] [PM]
Display posts from previous:    
Reply to topic

The time now is: Today 06:47

All times are GMT + 3 Hours



You cannot post new topics in this forum
You cannot reply to topics in this forum
You cannot edit your posts in this forum
You cannot delete your posts in this forum
You cannot vote in polls in this forum
You cannot attach files in this forum
You cannot download files in this forum