Today is a free download without charge Download

83-я Церемония вручения наград Оскар / The 83nd Annual Academy Awards (2011) TVRip

Reply to topic
 
Author
Message

Delia ®

Gender:

Longevity: 11 years

Posts: 1821

Торрент-статистика

Post 28-Feb-2011 17:13

[Quote]

83-я Церемония вручения наград Оскар
The 83nd Annual Academy Awards
(2011) TVRip
- Русское название: 83-я Церемония вручения наград Оскар
Оригинальное название: The 83nd Annual Academy Awards
Страна: USA
Трансляция: Первый Канал
Год выпуска: 2011
Жанр: ТВ-Шоу
Продолжительность: Общая - 03:41:27; 1 часть - 00:20:19, 2 часть - 03:21:08
Перевод: Одноголосый закадровый, профессиональный (Сербин и Гаврилов)
Студия Первого канала: Мария Шарапова, Александр Васильев, Сергей Шолохов, Екатерина Мцитуридзе.
Описание:
83-я церемония награждения премии «Оскар» за заслуги в области кинематографа за 2010 год
Качество видео: TVRip
Формат: AVI
Видеокодек: Xvid
Битрейт видео: ~1522kbps
Размер кадра: 720x576
Аудиокодек: FLAC
Битрейт аудио: 1536kbps, 2 channels

Отчет mediaInfo:

F:\\Oscar Ceremony 2011\Oscar Ceremony 2011-2 часть.avi
General
Complete name : F:\\Oscar Ceremony 2011\Oscar Ceremony 2011-2 часть.avi
Format : AVI
Format/Info : Audio Video Interleave
Format profile : OpenDML
File size : 4.65 GiB
Duration : 3h 21mn
Overall bit rate : 3 309 Kbps
Video #0
ID : 0
Format : MPEG-4 Visual
Format profile : [email protected]
Format settings, BVOP : No
Format settings, QPel : No
Format settings, GMC : No warppoints
Format settings, Matrix : Default (H.263)
Codec ID : XVID
Codec ID/Hint : XviD
Duration : 3h 21mn
Bit rate : 1 522 Kbps
Width : 720 pixels
Height : 576 pixels
Display aspect ratio : 5:4
Frame rate : 25.000 fps
Standard : PAL
Color space : YUV
Chroma subsampling : 4:2:0
Bit depth : 8 bits
Scan type : Progressive
Bits/(Pixel*Frame) : 0.147
Stream size : 2.14 GiB (46%)
Writing library : XviD 1.2.1 (UTC 2008-12-04)
Audio
Format : PCM
Format settings, Endianness : Little
Format settings, Sign : Unsigned
Codec ID : 1
Codec ID/Hint : Microsoft
Duration : 3h 21mn
Bit rate mode : Constant
Bit rate : 1 536 Kbps
Channel(s) : 2 channels
Sampling rate : 48.0 KHz
Bit depth : 16 bits
Stream size : 2.16 GiB (46%)
Interleave, duration : 21 ms (0.53 video frame)
Interleave, preload duration : 64 ms

Скриншоты:

     

_________________
Человек – это канат, натянутый между животным и сверхчеловеком, – канат над пропастью.
В человеке ценно то, что он мост, а не цель. Фридрих Ницше
Other forum [Profile] [PM]
Display posts from previous:    
Reply to topic

The time now is: Today 05:52

All times are GMT + 3 Hours



You cannot post new topics in this forum
You cannot reply to topics in this forum
You cannot edit your posts in this forum
You cannot delete your posts in this forum
You cannot vote in polls in this forum
You cannot attach files in this forum
You cannot download files in this forum