Today is a free download without charge Download

Кино про Алексеева (Михаил Сегал) [2015, Россия, драма, HDTV 1080i]

Reply to topic
 
Author
Message

Omen ®

Longevity: 8 years 10 months

Posts: 181086

Торрент-статистика

Post 10-Mar-2016 12:00

[Quote]

Кино про Алексеева- -Страна: Россия
Жанр: драма
Год выпуска: 2015
Производство: «Новые люди»
Продолжительность: 01:30:50
Оригинальная аудиодорожка: русский
Cубтитры: нет-Режиссер: Михаил Сегал-В ролях:
Александр Збруев, Алексей Капитонов, Татьяна Майст, Ксения Радченко, Денис Фомин,
Светлана Первушина, Анастасия Попкова, Андрей Макаревич, Дмитрий Гудочкин, Иван Звягинцев-Описание:
Фильм-путешествие по удивительной жизни Алексеева. Он пил чай с Тарковским, попал в КГБ из-за Гагарина, конкурировал с Калашниковым и Высоцким. Однажды он узнаёт о себе нечто большее, чем знал и мог предполагать: о своём таланте, о следе, который оставил в судьбах других людей. Жизнь можно прожить заново, если тебя кто-то любит.-Возраст: 12+-Качество: HDTV (1080i)
Формат: TS
Видео кодек: AVC
Аудио кодек: MPEG Audio

Видео: AVC, 1920 х 1080 (16:9), 25,000 кадр/сек, 6 492 Кбит/сек, 0.125 bit/pixel
Аудио: MPEG Audio 2, 48000 Hz, 192 Kbps, 2 канала
-

MediaInfo

General
ID : 6 (0x6)
Complete name : D:\Раздачи\Кино про Алексеева HDTV (1080i)\Кино про Алексеева HDTV (1080i).ts
Format : MPEG-TS
File size : 4.46 GiB
Duration : 1h 30mn
Overall bit rate mode : Variable
Overall bit rate : 7 033 Kbps
Video
ID : 321 (0x141)
Menu ID : 12101 (0x2F45)
Format : AVC
Format/Info : Advanced Video Codec
Format profile : [email protected]
Format settings, CABAC : Yes
Format settings, ReFrames : 4 frames
Codec ID : 27
Duration : 1h 30mn
Bit rate : 6 492 Kbps
Width : 1 920 pixels
Height : 1 080 pixels
Display aspect ratio : 16:9
Frame rate : 25.000 fps
Standard : Component
Color space : YUV
Chroma subsampling : 4:2:0
Bit depth : 8 bits
Scan type : Interlaced
Scan type, store method : Separated fields
Scan order : Top Field First
Bits/(Pixel*Frame) : 0.125
Stream size : 4.12 GiB (92%)
Color range : Limited
Color primaries : BT.709
Transfer characteristics : BT.709
Matrix coefficients : BT.709
Audio
ID : 401 (0x191)
Menu ID : 12101 (0x2F45)
Format : MPEG Audio
Format version : Version 1
Format profile : Layer 2
Codec ID : 4
Duration : 1h 30mn
Bit rate mode : Constant
Bit rate : 192 Kbps
Channel(s) : 2 channels
Sampling rate : 48.0 KHz
Compression mode : Lossy
Delay relative to video : 101ms
Stream size : 125 MiB (3%)
Language : Russian
Language, more info : Clean effects

Скриншоты


-Раздаю до первых 5-ти скачавших, на раздачи не возвращаюсь...-
Other forum [Profile] [PM]
Display posts from previous:    
Reply to topic

The time now is: Today 03:14

All times are GMT + 3 Hours



You cannot post new topics in this forum
You cannot reply to topics in this forum
You cannot edit your posts in this forum
You cannot delete your posts in this forum
You cannot vote in polls in this forum
You cannot attach files in this forum
You cannot download files in this forum