Today is a free download without charge Download

Богатырша (Ольга Лопато) [2015, Россия, Мультфильм, HDRip]

Reply to topic
 
Author
Message

Omen ®

Longevity: 7 years 11 months

Posts: 181087

Торрент-статистика

Post 10-Mar-2016 00:29

[Quote]

Богатырша-«Самый сказочный блокбастер Нового года»- Страна: Россия
Жанр: Мультфильм
Продолжительность: 01:15:52
Год выпуска: 2015-Перевод: Не требуется
Русские субтитры: нет-Режиссёр: Ольга Лопато-Роли озвучивали: Анна Хилькевич, Алексей Чумаков, Гарик Харламов, Тимур Батрутдинов, Михаил Пореченков, Алёна Бабенко, Борис Щербаков, Мирослава Карпович, Армен Джигарханян, Василиса Эльдарова-Описание: …И было предсказание славному витязю Бориполку, что у него родится сын, который станет великим воином и спасет Русь от великой напасти. Но, как всегда, все вышло наоборот: у героя родилась… дочка. А спасения Руси никто не отменял. И как сражаться с врагом, когда у него три головы, и каждая со своими выкрутасами?- l -Качество: HDRip
Формат: AVI-Видео: XviD, 720x304 (2.35:1), 25.000 fps, XviD build 50, 2122 Kbps
Аудио: 48 kHz, AC3 Dolby Digital, 3/2 (L,C,R,l,r) + LFE ch, 448 Kbps
Субтитры: отсутствуют- -

Скриншоты

MediaInfo

General Complete name : Downloads\BogaT1rKa.2O15.O.HDRip.14OOMB.avi Format : AVI Format/Info : Audio Video Interleave File size : 1.37 GiB Duration : 1h 15mn Overall bit rate : 2 580 Kbps Writing application : VirtualDubMod 1.5.10.2 (build 2540/release) Writing library : VirtualDubMod build 2540/release Video #0 ID : 0 Format : MPEG-4 Visual Format profile : Advanced [email protected] Format settings, BVOP : 2 Format settings, QPel : No Format settings, GMC : No warppoints Format settings, Matrix : Default (MPEG) Codec ID : XVID Codec ID/Hint : XviD Duration : 1h 15mn Bit rate : 2 122 Kbps Width : 720 pixels Height : 304 pixels Display aspect ratio : 2.35:1 Frame rate : 25.000 fps Color space : YUV Chroma subsampling : 4:2:0 Bit depth : 8 bits Scan type : Progressive Compression mode : Lossy Bits/(Pixel*Frame) : 0.388 Stream size : 1.12 GiB (82%) Writing library : XviD 1.2.1 (UTC 2008-12-04) Audio #1 ID : 1 Format : AC-3 Format/Info : Audio Coding 3 Mode extension : CM (complete main) Format settings, Endianness : Big Codec ID : 2000 Duration : 1h 15mn Bit rate mode : Constant Bit rate : 448 Kbps Channel(s) : 6 channels Channel positions : Front: L C R, Side: L R, LFE Sampling rate : 48.0 KHz Bit depth : 16 bits Compression mode : Lossy Stream size : 243 MiB (17%) Alignment : Split accross interleaves Interleave, duration : 40 ms (1.00 video frame) Interleave, preload duration : 500 ms
Other forum [Profile] [PM]
Display posts from previous:    
Reply to topic

The time now is: Today 07:13

All times are GMT + 3 Hours



You cannot post new topics in this forum
You cannot reply to topics in this forum
You cannot edit your posts in this forum
You cannot delete your posts in this forum
You cannot vote in polls in this forum
You cannot attach files in this forum
You cannot download files in this forum