Today is a free download without charge Download

Легкое поведение / Easy Virtue (Стефан Эллиотт / Stephan Elliott) [2008, Канада, Великобритания, мелодрама, комедия, BDRip 1080p]

Reply to topic
 
Author
Message

Delia ®

Gender:

Longevity: 11 years

Posts: 1821

Торрент-статистика

Post 29-Jul-2012 00:36

[Quote]

Легкое поведение / Easy Virtue«Давайте вести себя плохо!»--
Год выпуска: 2008
Страна: Канада , Великобритания
Жанр: мелодрама, комедия, ...
Продолжительность: 01:36:36
Перевод: Профессиональный (дублированный)
Субтитры: Russian , english (srt)
Режиссер: Стефан Эллиотт
Сценарий: Стефан Эллиотт, Шеридан Джоббинс, Ноэл Коуард
Продюсер: Джозеф Абрамс, Джеймс Д. Штерн, Барнеби Томпсон, ...
Оператор: Мартин Кензи
Композитор: Мариус Де Фриз
Художник: Джон Бирд, Марк Скратон, Шарлотта Уолтер, ...
Монтаж: Сью Блэйни- В ролях: Джессика Бил (Jessica Biel), Бен Барнс (Ben Barnes), Кристин Скотт Томас (Kristin Scott Thomas), Колин Фёрт (Colin Firth), Кимберли Никсон (Kimberley Nixon), Кэтрин Паркинсон (Katherine Parkinson), Крис Маршалл (Kris Marshall), Кристиан Брассингтон (Christian Brassington), Шарлотта Райли (Charlotte Riley), Джим МакМанус (Jim McManus), Пип Торренс (Pip Torrens), Джереми Хутон (Jeremy Hooton), Джоэнна Бэйкон (Joanna Bacon), Мэгги Хикки (Maggie Hickey), Джорджи Глен (Georgie Glen), David Longstaff, Майкл Арчер (Michael Archer), Ребел Расселл (Rebel Penfold-Russell), Стюарт Кларк (Stewart Clarke), Оливер Рейд (Oliver Reid)
Описание: Молодой англичанин Джон Уитэкер страстно влюбляется в сексуальную американку Лариту. Бурный роман, горячие простыни, скорый брак и нежный медовый месяц с романтическими коктейлями на побережье&3; Но, выходя замуж, Ларита даже в страшном сне не могла себе представить, какое будущее ее ждет. Оказавшись в классическом чопорном английском доме, избалованной красотке приходится выдержать смертельную схватку&3; со свекровью, которая ну никак не может мириться с легким поведением своей невестки.-Рейтинг MPAA: -- --Качество: BDRip
Формат: MKV
Видео кодек: H.264 (AVC)
Аудио кодеk: AC3
Видео: 1920x816 (2.35:1), 23.976 fps, AVC, 6 032 Kbps
Аудио: AC3, 448 Kbps, 48.0 KHz, 6 ch

МедиаИнфо

Код:
General
Complete name                    : Easy Virtue (2008)BDRip-F.HD.mkv
Format                           : Matroska
File size                        : 4.37 GiB
Duration                         : 1h 36mn
Overall bit rate                 : 6 470 Kbps
Encoded date                     : UTC 2012-07-28 20:54:57
Writing application              : mkvmerge v5.4.0 ('Piper') built on Mar 10 2012 13:34:39
Writing library                  : libebml v1.2.3 + libmatroska v1.3.0
Video
ID                               : 1
Format                           : AVC
Format/Info                      : Advanced Video Codec
Format profile                   : [email protected]
Format settings, CABAC           : Yes
Format settings, ReFrames        : 5 frames
Format settings, GOP             : N=15
Muxing mode                      : Container [email protected]
Codec ID                         : V_MPEG4/ISO/AVC
Duration                         : 1h 36mn
Bit rate                         : 6 032 Kbps
Width                            : 1 920 pixels
Height                           : 816 pixels
Display aspect ratio             : 2.35:1
Frame rate                       : 23.976 fps
Color space                      : YUV
Chroma subsampling               : 4:2:0
Bit depth                        : 8 bits
Scan type                        : Progressive
Bits/(Pixel*Frame)               : 0.161
Stream size                      : 3.98 GiB (91%)
Writing library                  : x264 core 125 r2200 999b753
Encoding settings                : cabac=1 / ref=5 / deblock=1:0:0 / analyse=0x3:0x113 / me=umh / subme=10 / psy=1 / psy_rd=1.00:0.00 / mixed_ref=1 / me_range=32 / chroma_me=1 / trellis=2 / 8x8dct=1 / cqm=0 / deadzone=21,11 / fast_pskip=0 / chroma_qp_offset=2 / threads=6 / lookahead_threads=1 / sliced_threads=0 / nr=0 / decimate=1 / interlaced=0 / bluray_compat=0 / constrained_intra=0 / bframes=8 / b_pyramid=2 / b_adapt=2 / b_bias=0 / direct=3 / weightb=1 / open_gop=0 / weightp=2 / keyint=240 / keyint_min=23 / scenecut=40 / intra_refresh=0 / rc=2pass / mbtree=0 / bitrate=6032 / ratetol=1.0 / qcomp=0.80 / qpmin=10 / qpmax=51 / qpstep=4 / cplxblur=20.0 / qblur=0.5 / ip_ratio=1.40 / pb_ratio=1.30 / aq=2:1.00
Color primaries                  : BT.709-5, BT.1361, IEC 61966-2-4, SMPTE RP177
Transfer characteristics         : BT.709-5, BT.1361
Matrix coefficients              : BT.709-5, BT.1361, IEC 61966-2-4 709, SMPTE RP177
Audio
ID                               : 2
Format                           : AC-3
Format/Info                      : Audio Coding 3
Mode extension                   : CM (complete main)
Codec ID                         : A_AC3
Duration                         : 1h 36mn
Bit rate mode                    : Constant
Bit rate                         : 448 Kbps
Channel(s)                       : 6 channels
Channel positions                : Front: L C R, Side: L R, LFE
Sampling rate                    : 48.0 KHz
Bit depth                        : 16 bits
Stream size                      : 310 MiB (7%)
Title                            : Дубляж, R5
Language                         : Russian
Text #1
ID                               : 3
Format                           : UTF-8
Codec ID                         : S_TEXT/UTF8
Codec ID/Info                    : UTF-8 Plain Text
Language                         : Russian
Text #2
ID                               : 4
Format                           : UTF-8
Codec ID                         : S_TEXT/UTF8
Codec ID/Info                    : UTF-8 Plain Text
Menu
00:00:00.000                     : en:Chapter 01
00:02:37.783                     : en:Chapter 02
00:06:16.793                     : en:Chapter 03
00:13:42.739                     : en:Chapter 04
00:21:24.366                     : en:Chapter 05
00:25:00.581                     : en:Chapter 06
00:30:59.190                     : en:Chapter 07
00:37:17.527                     : en:Chapter 08
00:44:58.362                     : en:Chapter 09
00:52:45.996                     : en:Chapter 10
01:01:50.916                     : en:Chapter 11
01:08:34.777                     : en:Chapter 12
01:13:36.704                     : en:Chapter 13
01:19:04.031                     : en:Chapter 14
01:26:45.075                     : en:Chapter 15
01:29:58.184                     : en:Chapter 16

Знаете ли Вы, что...

» Это вторая экранизация пьесы Ноэля Кауорда. До этого была версия Альфреда Хичкока 1928 года.


Скриншоты

     
     

_________________
Человек – это канат, натянутый между животным и сверхчеловеком, – канат над пропастью.
В человеке ценно то, что он мост, а не цель. Фридрих Ницше
Other forum [Profile] [PM]
Display posts from previous:    
Reply to topic

The time now is: Today 04:21

All times are GMT + 3 Hours



You cannot post new topics in this forum
You cannot reply to topics in this forum
You cannot edit your posts in this forum
You cannot delete your posts in this forum
You cannot vote in polls in this forum
You cannot attach files in this forum
You cannot download files in this forum