Today is a free download without charge Download

Александр Свет | Capture One Pro. Профессиональная обработка RAW (2017) PCRec

Reply to topic
 
Author
Message

Omen ®

Longevity: 6 years 9 months

Posts: 181090

Торрент-статистика

Post 09-Mar-2016 06:45

[Quote]

Capture One Pro. Профессиональная обработка RAW - Автор (режиссер): Александр Свет
Жанр: Обработка фото
Описание:
Курс «Capture One Pro. Профессиональная обработка RAW» направлен на глубокое освоение программы: от описания инструментов и эффективных приемов обработки, до сложной работы с RAW.
В Capture One Pro работают тысячи западных профессиональных фотографов. Зачастую к обработке в Capture One Pro приходят фотографы, которых не устраивает работа с цветом в Adobe Lightroom и других RAW-конвертерах. Попробуйте этот замечательный продукт.
Курс «Capture One Pro. Профессиональная обработка RAW» состоит из 8 занятий, каждое из которых раскрывает определенную особенность работы в программе: от каталогизации фотографий, функционала всех инструментов обработки, возможностей для работы с цветом и экспозицией до профессиональных приемов обработки RAW. Вы научитесь осмысленно обрабатывать фотографии и узнаете, каким образом можно раскрыть весь потенциал кадра, заложенный в формате RAW.
Продолжительность: 16:24:12
Качество видео: PCRec
Видео: AVC/H.264, 1920x1080, ~1 248 kb/s
Аудио: AAC, 2 ch, 303 kb/s

Mediainfo:

General
Александр Свет - Capture One Pro. Профессиональная обработка RAW (2017)\3\1 часть.mp4
Format : MPEG-4
Format profile : Base Media
Codec ID : isom (isom/iso2/avc1/mp41)
File size : 651 MiB
Duration : 58 min 20 s
Overall bit rate : 1 559 kb/s
Writing application : Lavf57.25.100
Video
ID : 1
Format : AVC
Format/Info : Advanced Video Codec
Format profile : [email protected]
Format settings, CABAC : Yes
Format settings, ReFrames : 4 frames
Format settings, GOP : M=4, N=24
Codec ID : avc1
Codec ID/Info : Advanced Video Coding
Duration : 58 min 20 s
Bit rate : 1 248 kb/s
Width : 1 920 pixels
Height : 1 080 pixels
Display aspect ratio : 16:9
Frame rate mode : Constant
Frame rate : 24.000 FPS
Color space : YUV
Chroma subsampling : 4:2:0
Bit depth : 8 bits
Scan type : Progressive
Bits/(Pixel*Frame) : 0.025
Stream size : 521 MiB (80%)
Audio
ID : 2
Format : AAC
Format/Info : Advanced Audio Codec
Format profile : LC
Codec ID : 40
Duration : 58 min 19 s
Bit rate mode : Constant
Bit rate : 303 kb/s
Channel(s) : 2 channels
Channel positions : Front: L R
Sampling rate : 44.1 kHz
Frame rate : 43.066 FPS (1024 spf)
Compression mode : Lossy
Stream size : 126 MiB (19%)
Language : unk
Default : Yes
Alternate group : 1
Скриншоты:
       
Other forum [Profile] [PM]
Similar theme
Forum Topic Author Torrent Replies Last Post
./templates/default/images/folder_dl.gif Шрифты Шрифты - Сборник шрифтов от Александры Гофман [TrueType] UndegraundMen
1 | 0

0 | 2670

32

2013-05-15 00:06
UndegraundMen Latest
./templates/default/images/folder_dl.gif Справочники, энциклопедии и словари Алексей Владимирович, Алексей Ерофеев | Петербург в названиях улиц. Происхождение названий улиц и проспектов, рек и каналов, мостов и островов [2008] [FB2] UndegraundMen
0 | 1

0 | 1372

0

2013-07-26 23:02
UndegraundMen Latest
./templates/default/images/folder_dl.gif Обучающее видео Александр Свет | Профессиональная обработка RAW в Capture One Pro 7 (2013) [PCRec] UndegraundMen
1 | 0

0 | 4123

50

2013-11-28 23:01
UndegraundMen Latest
./templates/default/images/folder_dl.gif Обучающее видео Алексей Кулик | Видеокурс по Ремонту обуви, изготовлению ключей, установки кнопок (2013) [DVDRip] Omen
1 | 0

3 | 2922

29

2018-08-08 08:23
zvladss Latest
./templates/default/images/folder_dl.gif Шрифты Шрифты - Винтажные шрифты 25 от Александры Гофманн / Vintage Fonts 25 by Alexandra Gophmann [TrueType] Omen
1 | 0

0 | 2496

6

2014-07-22 18:25
Omen Latest
./templates/default/images/folder_dl.gif Обучающее видео Алексей Пахомов | Диагностика бензиновых двигателей. Старт, Практик, Эксперт (2013) [DVDRip] O.S.A.
1 | 0

4 | 17113

410

2015-07-04 11:04
aleks-777 Latest
./templates/default/images/folder_dl.gif Обучающая и научно-популярная литература Александр Свияш | Реальный лидер. Настрой для усиления мужской харизмы. (2010) [FLAC] Omen
1 | 0

0 | 1984

21

2014-08-01 19:36
Omen Latest
./templates/default/images/folder_dl.gif Обучающее видео [Profileschool] Алексей Шадрин | Фундаментальная цветокоррекция фотографических изображений (2014) PCRec Omen
1 | 0

0 | 3663

98

2015-01-07 14:53
Omen Latest
./templates/default/images/folder_dl.gif Обучающее видео [Profileschool] Алексей Шадрин | Калибровка принтера: от А до Я (2015) PCRec Omen
1 | 0

0 | 2629

89

2015-03-25 21:19
Omen Latest
./templates/default/images/folder_dl.gif Обучающее видео Устройство легкового автомобиля + Автокондиционеры (Андрей Татауров, Алексей Пахомов) [2013 CamRip, PCRec] NarDok
1 | 0

0 | 3177

87

2015-04-01 22:20
NarDok Latest
Display posts from previous:    
Reply to topic

The time now is: Today 22:51

All times are GMT + 3 Hours



You cannot post new topics in this forum
You cannot reply to topics in this forum
You cannot edit your posts in this forum
You cannot delete your posts in this forum
You cannot vote in polls in this forum
You cannot attach files in this forum
You cannot download files in this forum