Today is a free download without charge Download

Александр Свет | Capture One Pro. Профессиональная обработка RAW (2017) PCRec

Reply to topic
 
Author
Message

Omen ®

Longevity: 6 years 6 months

Posts: 181112

Торрент-статистика

Post 09-Mar-2016 06:45

[Quote]

Capture One Pro. Профессиональная обработка RAW - Автор (режиссер): Александр Свет
Жанр: Обработка фото
Описание:
Курс «Capture One Pro. Профессиональная обработка RAW» направлен на глубокое освоение программы: от описания инструментов и эффективных приемов обработки, до сложной работы с RAW.
В Capture One Pro работают тысячи западных профессиональных фотографов. Зачастую к обработке в Capture One Pro приходят фотографы, которых не устраивает работа с цветом в Adobe Lightroom и других RAW-конвертерах. Попробуйте этот замечательный продукт.
Курс «Capture One Pro. Профессиональная обработка RAW» состоит из 8 занятий, каждое из которых раскрывает определенную особенность работы в программе: от каталогизации фотографий, функционала всех инструментов обработки, возможностей для работы с цветом и экспозицией до профессиональных приемов обработки RAW. Вы научитесь осмысленно обрабатывать фотографии и узнаете, каким образом можно раскрыть весь потенциал кадра, заложенный в формате RAW.
Продолжительность: 16:24:12
Качество видео: PCRec
Видео: AVC/H.264, 1920x1080, ~1 248 kb/s
Аудио: AAC, 2 ch, 303 kb/s

Mediainfo:

General
Александр Свет - Capture One Pro. Профессиональная обработка RAW (2017)\3\1 часть.mp4
Format : MPEG-4
Format profile : Base Media
Codec ID : isom (isom/iso2/avc1/mp41)
File size : 651 MiB
Duration : 58 min 20 s
Overall bit rate : 1 559 kb/s
Writing application : Lavf57.25.100
Video
ID : 1
Format : AVC
Format/Info : Advanced Video Codec
Format profile : [email protected]
Format settings, CABAC : Yes
Format settings, ReFrames : 4 frames
Format settings, GOP : M=4, N=24
Codec ID : avc1
Codec ID/Info : Advanced Video Coding
Duration : 58 min 20 s
Bit rate : 1 248 kb/s
Width : 1 920 pixels
Height : 1 080 pixels
Display aspect ratio : 16:9
Frame rate mode : Constant
Frame rate : 24.000 FPS
Color space : YUV
Chroma subsampling : 4:2:0
Bit depth : 8 bits
Scan type : Progressive
Bits/(Pixel*Frame) : 0.025
Stream size : 521 MiB (80%)
Audio
ID : 2
Format : AAC
Format/Info : Advanced Audio Codec
Format profile : LC
Codec ID : 40
Duration : 58 min 19 s
Bit rate mode : Constant
Bit rate : 303 kb/s
Channel(s) : 2 channels
Channel positions : Front: L R
Sampling rate : 44.1 kHz
Frame rate : 43.066 FPS (1024 spf)
Compression mode : Lossy
Stream size : 126 MiB (19%)
Language : unk
Default : Yes
Alternate group : 1
Скриншоты:
       
Other forum [Profile] [PM]
Similar theme
Forum Topic Author Torrent Replies Last Post
./templates/default/images/folder_dl.gif Обучающее видео Алекс Мэй | Академия секса (2012) [SATRip] UndegraundMen
1 | 0

0 | 12040

709

2013-09-30 23:05
UndegraundMen Latest
./templates/default/images/folder_dl.gif Обучающее видео Александр Свет | Профессиональная обработка RAW в Capture One Pro 7 (2013) [PCRec] UndegraundMen
1 | 0

0 | 3822

50

2013-11-28 23:01
UndegraundMen Latest
./templates/default/images/folder_dl.gif Компьютерная литература Виктор Долженков, Александр Стученков | Самоучитель Excel 2010 (2011) [PDF] Omen
1 | 0

0 | 1723

8

2014-08-09 21:50
Omen Latest
./templates/default/images/folder_dl.gif Обучающее видео [Profileschool] Алексей Шадрин | Калибровка монитора от А до Я (2014) PCRec Omen
2 | 0

0 | 3852

135

2014-10-14 21:31
Omen Latest
./templates/default/images/folder_dl.gif Обучающее видео [Profileschool] Алексей Шадрин | Управление визуальным объемом и резкостью изображений (2014) PCRec Omen
1 | 0

0 | 3233

133

2014-11-14 15:38
Omen Latest
./templates/default/images/folder_dl.gif Обучающее видео [Profileschool] Алексей Шадрин | Калибровка принтера: от А до Я (2015) PCRec Omen
2 | 0

0 | 2340

89

2015-03-25 21:19
Omen Latest
./templates/default/images/folder_dl.gif Обучающее видео [Profileschool] Алексей Шадрин | Секреты современного искусства - Марк Шагал (2015) PCRec Omen
1 | 0

0 | 1670

34

2015-04-06 16:23
Omen Latest
./templates/default/images/folder_dl.gif Обучающее видео [Profileschool] Алексей Шадрин | Пленочная фотография: за и против (Алексей Шадрин)[ 2015.,Обучающее видео]PCRec sashau
1 | 0

0 | 2589

28

2015-04-13 04:16
sashau Latest
./templates/default/images/folder_dl.gif Обучающее видео Алекс Мэй | Как продлить половой акт (2011) [CamRip] Omen
1 | 0

0 | 1619

179

2015-05-07 00:07
Omen Latest
./templates/default/images/folder_dl.gif Обучающее видео Алекс Мэй | Сексуальные позиции. Для максимального наслаждения (2013) [CamRip] Omen
2 | 0

0 | 2426

208

2015-05-07 00:08
Omen Latest
Display posts from previous:    
Reply to topic

The time now is: Today 11:39

All times are GMT + 3 Hours



You cannot post new topics in this forum
You cannot reply to topics in this forum
You cannot edit your posts in this forum
You cannot delete your posts in this forum
You cannot vote in polls in this forum
You cannot attach files in this forum
You cannot download files in this forum