Today is a free download without charge Download

Дуэль. Пушкинъ – Лермонтовъ (Денис Банников) [2014, Россия, фэнтези, драма, HDTV 1080i]

Reply to topic
 
Author
Message

Omen ®

Longevity: 8 years 10 months

Posts: 181086

Торрент-статистика

Post 07-Mar-2016 18:04

[Quote]

Дуэль. Пушкинъ – Лермонтовъ
Страна: Россия
Студия: Brave Rabbit
Жанр: фэнтези, драма
Год выпуска: 2014
Продолжительность: 02:14:00
Оригинальная аудиодорожка: русский
Cубтитры: Нет
Режиссер: Денис Банников
В ролях:
Александр Карпов - Александр Сергеевич Пушкин
Геннадий Яковлев - Михаил Юрьевич Лермонтов
Евгений Лазарев - Александр Христофорович Бенкендорф
Арнис Лицитис - Густав фон Берг
Елена Соловьева - госпожа N.N.
Жанна Воробьева - госпожа N.A.
Светлана Агафошина - Наталья Гончарова
Мария Баева - Наталья Александровна Пушкина
Вячеслав Невинный-мл. - Александр Сергеевич Грибоедов
Иван Пилипенко - Петр Андреевич Вяземский
Виталий Максимов - Николай I
Hихард Kэперс - Дантес
Описание: В основе сюжета - историческая альтернатива. Это другой 19 век.
Автор поместил реальных персонажей русской истории и культуры в вымышленные предлагаемые обстоятельства 1857 года. Выиграна Крымская война. Россией по-прежнему правит Николай I. На экране - Пушкин, Лермонтов, Бенкендорф, Вяземский, Гончарова, и даже Грибоедов, судьба которого в 1829 году сложилась иначе. Пушкин окончательно отошел от вольнодумства. Богат, хорошо издается, но все его главные произведения написаны уже давно. По-прежнему женат на Гончаровой. Создает заказанную двором «Историю Дома Романовых» – помпезное парадное произведение. Лермонтов одинок. Участвовал в безчисленных дуэлях. В Крымской войне был серьезно ранен. Вышел в отставку в чине майора. Продолжает все это время писать стихи и поэмы, которые плохо издаются.
Таковы исходные данные для этой исторической фантазии. Что представляет собой великий художник, который пережил свою эпоху? Что есть Гений в России? Что есть в ней Гражданин? Россия и мир. Художник и Власть. Порочный свет и чистые души. Высокие идеи и низкое лицемерие. Спасение или катастрофа. Это фильм о сегодняшнем дне.
Доп. информация: Запись со спутника Eutelsat 36A/B, телеканал "Наше HD".
Сэмпл: http://multi-up.com/1092185
Контейнер: MKV
Видео: AVC, 1920x1080i, 25.000 fps, 5925 kbps
Аудио: Русский (Dolby AC3 5.1, 48 kHz, 448 kbps)

MediaInfo

Общее
Уникальный идентификатор : 182819218502195850266296130841353032214 (0x8989B36330E82C91A28A6360960A9216)
Полное имя : E:\Дуэль Пушкинъ-Лермонтовъ_2014_HDTV_1080i.mkv
Формат : Matroska
Версия формата : Version 2
Размер файла : 6,09 Гбайт
Продолжительность : 2 ч. 14 м.
Общий поток : 6503 Кбит/сек
Дата кодирования : UTC 2016-03-07 09:40:46
Программа кодирования : mkvmerge v5.6.0 ('Kenya Kane') built on May 27 2012 16:44:04
Библиотека кодирования : libebml v1.2.3 + libmatroska v1.3.0
Видео
Идентификатор : 1
Формат : AVC
Формат/Информация : Advanced Video Codec
Профиль формата : [email protected]
Параметр CABAC формата : Да
Параметр ReFrames формата : 3 кадра
Параметр GOP формата : M=4, N=32
Идентификатор кодека : V_MPEG4/ISO/AVC
Продолжительность : 2 ч. 14 м.
Битрейт : 5925 Кбит/сек
Ширина : 1920 пикселей
Высота : 1080 пикселей
Соотношение сторон : 16:9
Режим частоты кадров : Постоянный
Частота кадров : 25,000 кадров/сек
Стандарт вещания : Component
Цветовое пространство : YUV
Субдискретизация насыщенности : 4:2:0
Битовая глубина : 8 бит
Тип развёртки : Чересстрочная
Метод сохранения типа развёртки : Раздельные поля
Порядок развёртки : Верхнее поле первое
Бит/(Пиксели*Кадры) : 0.114
Размер потока : 5,55 Гбайт (91%)
Default : Да
Forced : Нет
Цветовой диапазон : Limited
Основные цвета : BT.709
Характеристики трансфера : BT.709
Коэффициенты матрицы : BT.709
Аудио
Идентификатор : 2
Формат : AC-3
Формат/Информация : Audio Coding 3
Расширение режима : CM (complete main)
Параметр Endianness формата : Big
Идентификатор кодека : A_AC3
Продолжительность : 2 ч. 14 м.
Вид битрейта : Постоянный
Битрейт : 448 Кбит/сек
Каналы : 6 каналов
Расположение каналов : Front: L C R, Side: L R, LFE
Частота : 48,0 КГц
Частота кадров : 31,250 кадров/сек (1536 spf)
Метод сжатия : С потерями
Задержка видео : 53 мс.
Размер потока : 429 Мбайт (7%)
Язык : Russian
Default : Да
Forced : Нет

Скриншоты

Other forum [Profile] [PM]
Display posts from previous:    
Reply to topic

The time now is: Today 14:06

All times are GMT + 3 Hours



You cannot post new topics in this forum
You cannot reply to topics in this forum
You cannot edit your posts in this forum
You cannot delete your posts in this forum
You cannot vote in polls in this forum
You cannot attach files in this forum
You cannot download files in this forum