Today is a free download without charge Download

Предчувствие / Premonition (Меннан Япо / Menna Japan) [2007, США, Драма, мистика, триллер, BDRip 1080p] DUB Sub rus eng

Reply to topic
 
Author
Message

Delia ®

Gender:

Longevity: 11 years

Posts: 1821

Торрент-статистика

Post 28-Jul-2012 11:29

[Quote]

Предчувствие / Premonition«Представь себе невозможное»--
Год выпуска: 2007
Страна: США
Жанр: фэнтези, триллер, драма, детектив, ...
Продолжительность: 01:36:27
Перевод: Профессиональный (дублированный)
Субтитры: Russian , english (srt)
Режиссер: Меннан Япо
Сценарий: Билл Келли
Продюсер: Ашок Амритрадж, Дженнифер Джибгот, Джон Дж. Джашни, ...
Оператор: Торстен Липпсток
Композитор: Клаус Бадельт
Художник: Дж. Дэннис Вашингтон, Томас Т. Тейлор, Джилл М. Оханнесон, ...
Монтаж: Нил Трэвис- В ролях: Сандра Буллок (Sandra Bullock), Джулиан МакМэхон (Julian McMahon), Шайэн МакКлюр (Shyann McClure), Кортни Тэйлор Бернесс (Courtney Taylor Burness), Ниа Лонг (Nia Long), Марк Маколей (Marc Macaulay), Кейт Неллиган (Kate Nelligan), Ирен Циглер (Irene Ziegler), Филлип ДеВона (Phillip DeVona), Ричи Монтгомери (Ritchie Montgomery), Мэтт Мур (Matt Moore), Эмбер Валлетта (Amber Valletta), Петер Стормаре (Peter Stormare), Лорел Уитсетт (Laurel Whitsett), Кристин Кеттерер (Kristin Ketterer), Маркус Лайл Браун (Marcus Lyle Brown), Джейсон Дуглас (Jason Douglas), Дэвид А. Шаффер (David A. Shaffer), Флориана Туллио (Floriana Tullio), Марк Фамиглетти (Mark Famiglietti)
Описание: У каждого в жизни хоть раз было предчувствие беды. Когда просто знаешь, что скоро произойдет что-то плохое. Домохозяйку Линду сейчас как раз охватило такое предчувствие. Некоторое время спустя шериф города сообщает ей, что ее муж погиб в автокатастрофе. Не зная себя от горя и отчаяния, Линда не находит себе места — она не верит, что такое могло произойти. Проснувшись утром на следующий день, она видит своего мужа целым и невредимым&3;Вскоре Линда поймет, что это было не простое предчувствие, и теперь она должна предотвратить трагедию.-Рейтинг MPAA: -- --Качество: BDRip
Формат: MKV
Видео кодек: H.264 (AVC)
Аудио кодеk: AC3
Видео: 1920x800 (2.40:1), 23.976 fps, AVC, 6 041 Kbps
Аудио: AC3, 448 Kbps, 48.0 KHz, 6 ch

МедиаИнфо

Код:
General
Complete name                    : Premonition(2007)BDRip_F.HD.mkv
Format                           : Matroska
File size                        : 4.37 GiB
Duration                         : 1h 36mn
Overall bit rate                 : 6 487 Kbps
Encoded date                     : UTC 2012-07-28 07:28:05
Writing application              : mkvmerge v5.7.0 ('The Whirlwind') built on Jul  8 2012 20:08:51
Writing library                  : libebml v1.2.3 + libmatroska v1.3.0
Video
ID                               : 1
Format                           : AVC
Format/Info                      : Advanced Video Codec
Format profile                   : [email protected]
Format settings, CABAC           : Yes
Format settings, ReFrames        : 5 frames
Muxing mode                      : Container [email protected]4.1
Codec ID                         : V_MPEG4/ISO/AVC
Duration                         : 1h 36mn
Bit rate                         : 6 041 Kbps
Width                            : 1 920 pixels
Height                           : 800 pixels
Display aspect ratio             : 2.40:1
Frame rate                       : 23.976 fps
Color space                      : YUV
Chroma subsampling               : 4:2:0
Bit depth                        : 8 bits
Scan type                        : Progressive
Bits/(Pixel*Frame)               : 0.164
Stream size                      : 3.98 GiB (91%)
Writing library                  : x264 core 125 r2200 999b753
Encoding settings                : cabac=1 / ref=5 / deblock=1:-1:-1 / analyse=0x3:0x113 / me=umh / subme=10 / psy=1 / psy_rd=1.00:0.10 / mixed_ref=1 / me_range=32 / chroma_me=1 / trellis=2 / 8x8dct=1 / cqm=0 / deadzone=21,11 / fast_pskip=0 / chroma_qp_offset=-3 / threads=6 / lookahead_threads=1 / sliced_threads=0 / nr=0 / decimate=1 / interlaced=0 / bluray_compat=0 / constrained_intra=0 / bframes=8 / b_pyramid=2 / b_adapt=2 / b_bias=0 / direct=3 / weightb=1 / open_gop=0 / weightp=2 / keyint=240 / keyint_min=23 / scenecut=40 / intra_refresh=0 / rc=2pass / mbtree=0 / bitrate=6041 / ratetol=1.0 / qcomp=0.80 / qpmin=0 / qpmax=69 / qpstep=4 / cplxblur=20.0 / qblur=0.5 / ip_ratio=1.40 / pb_ratio=1.30 / aq=1:0.90
Color primaries                  : BT.709-5, BT.1361, IEC 61966-2-4, SMPTE RP177
Transfer characteristics         : BT.709-5, BT.1361
Matrix coefficients              : BT.709-5, BT.1361, IEC 61966-2-4 709, SMPTE RP177
Audio
ID                               : 2
Format                           : AC-3
Format/Info                      : Audio Coding 3
Mode extension                   : CM (complete main)
Codec ID                         : A_AC3
Duration                         : 1h 36mn
Bit rate mode                    : Constant
Bit rate                         : 448 Kbps
Channel(s)                       : 6 channels
Channel positions                : Front: L C R, Side: L R, LFE
Sampling rate                    : 48.0 KHz
Bit depth                        : 16 bits
Stream size                      : 309 MiB (7%)
Language                         : Russian
Text #1
ID                               : 3
Format                           : UTF-8
Codec ID                         : S_TEXT/UTF8
Codec ID/Info                    : UTF-8 Plain Text
Language                         : Russian
Text #2
ID                               : 4
Format                           : UTF-8
Codec ID                         : S_TEXT/UTF8
Codec ID/Info                    : UTF-8 Plain Text
Menu
00:00:00.000                     : en:Chapter 01
00:07:54.974                     : en:Chapter 02
00:12:15.693                     : en:Chapter 03
00:16:26.235                     : en:Chapter 04
00:19:58.447                     : en:Chapter 05
00:27:33.318                     : en:Chapter 06
00:33:01.813                     : en:Chapter 07
00:38:01.362                     : en:Chapter 08
00:43:11.255                     : en:Chapter 09
00:48:46.173                     : en:Chapter 10
00:56:17.457                     : en:Chapter 11
01:02:52.310                     : en:Chapter 12
01:08:02.745                     : en:Chapter 13
01:16:44.433                     : en:Chapter 14
01:23:44.602                     : en:Chapter 15
01:27:44.634                     : en:Chapter 16

Знаете ли Вы, что...

» Фильм снят за 45 дней.
» Съемки фильма предполагалось проводить в Новом Орлеане, но ураган «Катрина» заставил создателей фильма изменить локацию.
» Джулиан МакМэхон снимался в сериале «Зачарованные», где, по иронии судьбы, его персонаж был влюблен в ведьму Фиби, так же обладающую даром предвидения, как и жена персонажа Джулиана МакМэхона в фильме «Предчувствие».
» Этот фильм - не ремейк японского фильма, который носит одноименное название.
» В больничной сцене, где героине Сандры Баллок делают укол не был использован дублер, укол от столбняка был на самом деле сделан Сандре, т.к. она нечаянно себя порезала перед этой сценой.


Скриншоты

     
     

_________________
Человек – это канат, натянутый между животным и сверхчеловеком, – канат над пропастью.
В человеке ценно то, что он мост, а не цель. Фридрих Ницше
Other forum [Profile] [PM]
Display posts from previous:    
Reply to topic

The time now is: Today 01:06

All times are GMT + 3 Hours



You cannot post new topics in this forum
You cannot reply to topics in this forum
You cannot edit your posts in this forum
You cannot delete your posts in this forum
You cannot vote in polls in this forum
You cannot attach files in this forum
You cannot download files in this forum