Today is a free download without charge Download

Соучастники (Роман Просвирнин) [2015, Россия, криминал, мелодрама, HDTV 1080i]

Reply to topic
 
Author
Message

Omen ®

Longevity: 8 years 10 months

Posts: 181086

Торрент-статистика

Post 07-Mar-2016 15:33

[Quote]

Соучастники- -Страна: Россия
Жанр: криминал, мелодрама
Год выпуска: 2015
Производство: «Кинокомпания Русское»
Продолжительность: 01:32:10
Оригинальная аудиодорожка: русский
Cубтитры: нет-Режиссер: Роман Просвирнин-В ролях:
Карина Разумовская, Дмитрий Миллер, Сергей Мухин, Елена Чернявская, Константин Соловьёв,
Андрей Селиванов, Артём Фадеев, Евгения Каверау, Лариса Домаскина, Артём Банников, Елена Кожейкина-Описание:
Ольга возвращается из командировки на день раньше и застает своего мужа Эдуарда в постели с любовницей.
После скандала Ольга выбегает из дома и натыкается во дворе на труп.-Возраст: 16+-Качество: HDTV (1080i)
Формат: TS
Видео кодек: AVC
Аудио кодек: MPEG Audio

Видео: AVC, 1920 х 1080 (16:9), 25,000 кадр/сек, 7 866 Кбит/сек, 0.152 bit/pixel
Аудио: MPEG Audio 2, 48000 Hz, 192 Kbps, 2 канала
-

MediaInfo

General
ID : 1 (0x1)
Complete name : D:\Раздачи\Соучастники HDTV (1080i)\Соучастники HDTV (1080i).ts
Format : MPEG-TS
File size : 5.46 GiB
Duration : 1h 32mn
Overall bit rate mode : Variable
Overall bit rate : 8 479 Kbps
Video
ID : 2911 (0xB5F)
Menu ID : 1119 (0x45F)
Format : AVC
Format/Info : Advanced Video Codec
Format profile : [email protected]
Format settings, CABAC : Yes
Format settings, ReFrames : 4 frames
Codec ID : 27
Duration : 1h 32mn
Bit rate : 7 866 Kbps
Width : 1 920 pixels
Height : 1 080 pixels
Display aspect ratio : 16:9
Frame rate : 25.000 fps
Color space : YUV
Chroma subsampling : 4:2:0
Bit depth : 8 bits
Scan type : MBAFF
Scan type, store method : Interleaved fields
Scan order : Top Field First
Bits/(Pixel*Frame) : 0.152
Stream size : 5.06 GiB (93%)
Audio
ID : 2912 (0xB60)
Menu ID : 1119 (0x45F)
Format : MPEG Audio
Format version : Version 1
Format profile : Layer 2
Codec ID : 3
Duration : 1h 32mn
Bit rate mode : Constant
Bit rate : 192 Kbps
Channel(s) : 2 channels
Sampling rate : 48.0 KHz
Compression mode : Lossy
Stream size : 127 MiB (2%)
Language : Russian

Скриншоты


-Раздаю до первых 5-ти скачавших, на раздачи не возвращаюсь...-
Other forum [Profile] [PM]
Display posts from previous:    
Reply to topic

The time now is: Today 18:58

All times are GMT + 3 Hours



You cannot post new topics in this forum
You cannot reply to topics in this forum
You cannot edit your posts in this forum
You cannot delete your posts in this forum
You cannot vote in polls in this forum
You cannot attach files in this forum
You cannot download files in this forum