Today is a free download without charge Download

Про Любовь (Анна Меликян) [2015, Россия, комедия, HDTV 1080i] + Original Rus

Reply to topic
 
Author
Message

Omen ®

Longevity: 8 years 10 months

Posts: 181086

Торрент-статистика

Post 07-Mar-2016 12:00

[Quote]

Про Любовь Страна: Россия
Жанр: комедия
Год выпуска: 2015
Продолжительность: 01:50:21
Перевод: Не требуется
Cубтитры: нет
Оригинальная аудиодорожка: русский
Режиссер: Анна Меликян
В ролях: Рената Литвинова, Михаил Ефремов, Мария Шалаева, Василий Ракша, Юлия Снигирь, Владимир Машков, Алексей Филимонов, Евгений Цыганов, Александра Бортич, Мария Данилюк
Описание: - Что такое любовь? На этот вопрос пытаются ответить герои фильма. Вереница самых разных персонажей и историй переплетаются в этом фильме. Маленькие истории о самом разном и все о любви: молодая пара, предпочитающая жить в образах японских аниме-героев; секретарша, получившая непристойное предложение от своего босса; японка, приехавшая в Москву в поисках русского мужчины; художник-граффити в поисках красоты; бывшая жена, нанятая своим мужем для необычного задания и многое другое…
Доп.информация: Запись с 1HD телеканала
Сэмпл: https://yadi.sk/i/wV4b6YF_pxYeG

Тип релиза: HDTV 1080i
Контейнер: TS
Видео: AVC/H.264, PAL, 1920x1080 (16:9), 6007 Кбит/сек, 25.000 fps
Аудио: русский, Mp-2, 2 ch, 48,0 КГц, 192 Кбит/сек

MediaInfo

Общее
Идентификатор : 1 (0x1)
Полное имя : D:\Про любовь.ts
Формат : MPEG-TS
Размер файла : 5,03 Гбайт
Продолжительность : 1 ч. 50 м.
Режим общего битрейта : Переменный
Общий поток : 6524 Кбит/сек
Максимальный общий битрейт : 35,5 Мбит/сек
Видео
Идентификатор : 4113 (0x1011)
Идентификатор меню : 1 (0x1)
Формат : AVC
Формат/Информация : Advanced Video Codec
Профиль формата : [email protected]
Параметр CABAC формата : Да
Параметр ReFrames формата : 3 кадра
Параметр GOP формата : M=4, N=28
Идентификатор кодека : 27
Продолжительность : 1 ч. 50 м.
Вид битрейта : Переменный
Битрейт : 6007 Кбит/сек
Максимальный битрейт : 40,0 Мбит/сек
Ширина : 1920 пикселей
Высота : 1080 пикселей
Соотношение сторон : 16:9
Частота кадров : 25,000 кадров/сек
Стандарт вещания : Component
Цветовое пространство : YUV
Субдискретизация насыщенности : 4:2:0
Битовая глубина : 8 бит
Тип развёртки : Чересстрочная
Порядок развёртки : Верхнее поле первое
Бит/(Пиксели*Кадры) : 0.116
Размер потока : 4,63 Гбайт (92%)
colour_range : Limited
Аудио
Идентификатор : 4352 (0x1100)
Идентификатор меню : 1 (0x1)
Формат : MPEG Audio
Версия формата : Version 1
Профиль формата : Layer 2
Идентификатор кодека : 4
Продолжительность : 1 ч. 50 м.
Вид битрейта : Постоянный
Битрейт : 192 Кбит/сек
Каналы : 2 канала
Частота : 48,0 КГц
Метод сжатия : С потерями
Размер потока : 152 Мбайт (3%)
Язык : Russian

Скриншот с названием фильма

Скриншоты

Other forum [Profile] [PM]
Display posts from previous:    
Reply to topic

The time now is: Today 19:13

All times are GMT + 3 Hours



You cannot post new topics in this forum
You cannot reply to topics in this forum
You cannot edit your posts in this forum
You cannot delete your posts in this forum
You cannot vote in polls in this forum
You cannot attach files in this forum
You cannot download files in this forum