Today is a free download without charge Download

Отель «Миллион долларов» / The Million Dollar Hotel (Вим Вендерс / Wim Wenders, Германия, США, Великобритания, Триллер, драма, детектив, 2000) [1080p] BDRemux

Reply to topic
 
Author
Message

Koralina ®

Longevity: 9 years 7 months

Posts: 994

Location: Lithuania

Торрент-статистика

Post 27-Jul-2012 10:03

[Quote]

Отель «Миллион долларов» / The Million Dollar Hotel (2000) [1080p] BDRemux- Русское название: Отель «Миллион долларов»
Оригинальное название: The Million Dollar Hotel
Производство: Германия, США, Великобритания
Год выпуска: 2000
Жанр: Триллер, драма, детектив
Описание фильма:
Побывавший на своем веку в немыслимых переделках, специальный агент ФБР, детектив Скиннер расследует самое загадочное дело в своей карьере: смерть сына известного медиа-магната.
Так он оказывается в лос-анджелесскои отеле «Миллион долларов», населенном наркоманами и ворами. Было ли это самоубийство или убийство? Ответ становится еще более сложным, когда один из постояльцев пытается увести подозрения от красавицы Элоизы. Теперь Скиннер должен отделить факты от вымыслов, чтобы найти виновного, кто бы он ни был…
Режиссер: Вим Вендерс / Wim Wenders
Актеры: Мэл Гибсон, Милла Йовович, Джереми Дэйвис, Джимми Смитс, Питер Стормаре, Аманда Пламмер, Тим Рот, Глория Стюарт, Том Бауэр, Донал Лог, Бад Корт, Джулиан Сэндс, Конрад Робертс, Харрис Юлин, Чарлэйн Вудард, Эллен Клегхорн, Ричард Эдсон, Тито Ларрива, Боно
Продолжительность: 01:56:56
Перевод: Профессиональный двухголосый, любительский одноголосый
Язык субтитров: Русский, английский
Вид субтитров: Вшитые (отключаемые)

Видеокодек: MPEG-4 AVC
Битрейт видео: ~31.7 Мбит/с
Размер кадра: 1920x1080
Качество видео: Blu-Ray Remux (1080p)
Аудио:
1. DTS-HD МА, 6 ch, 3370 Кбит/с - русский (двухголосый)
2. DTS, 6 ch, 1510 Кбит/с - русский (одноголосый)
3. DTS-HD МА, 6 ch, 2038 Кбит/с - английский (оригинал)

MediaInfo:

Общее
Уникальный идентификатор : 186122259594172538819822293635671113084 (0x8C05D7E2F6BD45D39547F7A81469BD7C)
Полное имя : C:\Justlan\Отель Миллион долларов\Otel mollion dollarov_BluRay.mkv
Формат : Matroska
Версия формата : Version 2
Размер файла : 31,6 Гбайт
Продолжительность : 2 ч. 2 м.
Режим общего битрейта : Переменный
Общий поток : 37,0 Мбит/сек
Программа кодирования : mkvmerge v5.7.0 ('The Whirlwind') built on Jul 8 2012 20:08:51
Библиотека кодирования : libebml v1.2.3 + libmatroska v1.3.0
Видео
Идентификатор : 1
Формат : AVC
Формат/Информация : Advanced Video Codec
Профиль формата : [url=mailto:[email protected]][email protected][/url]
Параметр CABAC формата : Да
Параметр ReFrames формата : 4 кадра
Режим смешивания : Container [email protected]
Идентификатор кодека : V_MPEG4/ISO/AVC
Продолжительность : 2 ч. 2 м.
Вид битрейта : Переменный
Битрейт : 31,7 Мбит/сек
Максимальный битрейт : 22,0 Мбит/сек
Ширина : 1920 пикселей
Высота : 1080 пикселей
Соотношение сторон : 16:9
Частота кадров : 23,976 кадра/сек
Стандарт вещания : NTSC
Цветовое пространство : YUV
Субдискретизация насыщенности : 4:2:0
Битовая глубина : 8 бит
Тип развёртки : Прогрессивная
Бит/(Пиксели*Кадры) : 0.637
Размер потока : 27,1 Гбайт (86%)
Язык : English
Default : Да
Forced : Да
Основные цвета : BT.709-5, BT.1361, IEC 61966-2-4, SMPTE RP177
Характеристики трансфера : BT.709-5, BT.1361
Коэффициенты матрицы : BT.709-5, BT.1361, IEC 61966-2-4 709, SMPTE RP177
Аудио #1
Идентификатор : 2
Формат : DTS
Формат/Информация : Digital Theater Systems
Профиль формата : MA / Core
Идентификатор кодека : A_DTS
Продолжительность : 2 ч. 2 м.
Вид битрейта : Переменный
Битрейт : 1561 Кбит/сек / 1510 Кбит/сек
Каналы : 6 каналов
Расположение каналов : Front: L C R, Side: L R, LFE
Частота : 48,0 КГц
Битовая глубина : 24 бит
Метод сжатия : Без потерь / Lossy
Заголовок : DVO
Язык : Russian
Default : Да
Forced : Да
Аудио #2
Идентификатор : 3
Формат : DTS
Формат/Информация : Digital Theater Systems
Идентификатор кодека : A_DTS
Продолжительность : 2 ч. 2 м.
Вид битрейта : Постоянный
Битрейт : 1510 Кбит/сек
Каналы : 6 каналов
Расположение каналов : Front: L C R, Side: L R, LFE
Частота : 48,0 КГц
Битовая глубина : 24 бит
Метод сжатия : С потерями
Размер потока : 1,29 Гбайт (4%)
Заголовок : VO
Язык : Russian
Default : Нет
Forced : Нет
Аудио #3
Идентификатор : 4
Формат : DTS
Формат/Информация : Digital Theater Systems
Профиль формата : MA / Core
Идентификатор кодека : A_DTS
Продолжительность : 2 ч. 2 м.
Вид битрейта : Переменный
Битрейт : 1561 Кбит/сек / 1510 Кбит/сек
Каналы : 6 каналов
Расположение каналов : Front: L C R, Side: L R, LFE
Частота : 48,0 КГц
Битовая глубина : 24 бит
Метод сжатия : Без потерь / Lossy
Язык : English
Default : Нет
Forced : Нет
Текст #1
Идентификатор : 5
Формат : UTF-8
Идентификатор кодека : S_TEXT/UTF8
Идентификатор кодека/Информация : UTF-8 Plain Text
Заголовок : V-1
Язык : Russian
Default : Нет
Forced : Нет
Текст #2
Идентификатор : 6
Формат : UTF-8
Идентификатор кодека : S_TEXT/UTF8
Идентификатор кодека/Информация : UTF-8 Plain Text
Заголовок : V-2
Язык : Russian
Default : Нет
Forced : Нет
Текст #3
Идентификатор : 7
Формат : UTF-8
Идентификатор кодека : S_TEXT/UTF8
Идентификатор кодека/Информация : UTF-8 Plain Text
Язык : English
Default : Нет
Forced : Нет
Меню
00:00:00.000 : en:
00:02:48.543 : en:
00:06:19.462 : en:
00:10:41.432 : en:
00:12:42.595 : en:
00:16:05.547 : en:
00:22:06.700 : en:
00:25:01.458 : en:
00:28:01.679 : en:
00:32:28.529 : en:
00:37:11.395 : en:
00:43:37.531 : en:
00:50:40.661 : en:
01:03:14.207 : en:
01:06:54.176 : en:
01:12:32.389 : en:
01:19:25.802 : en:
01:24:17.135 : en:
01:27:58.564 : en:
01:34:10.061 : en:
01:38:20.603 : en:
01:43:21.612 : en:
01:48:56.488 : en:
01:56:34.195 : en:
Скриншоты:          

_________________
Other forum [Profile] [PM]
Similar theme
Forum Topic Author Torrent Replies Last Post
./templates/default/images/folder_dl.gif Фильмы 2011-2020 Отель «Мэриголд»: Лучший из экзотических / The Best Exotic Marigold Hotel (Джон Мэдден / John Madden) [2011,драма, комедия, HDRip][Лицензия] BoxeR
1 | 0

0 | 1143

12

2012-06-21 11:24
BoxeR Latest
./templates/default/images/folder_dl.gif Техническая и научно-популярная литература А.В.Умбиталиев, А.К.Цыцулин | Твердотельная революция в телевидении [2006] [PDF] UndegraundMen
1 | 0

0 | 526

1

2013-06-15 04:33
UndegraundMen Latest
Display posts from previous:    
Reply to topic

The time now is: Today 10:29

All times are GMT + 3 Hours



You cannot post new topics in this forum
You cannot reply to topics in this forum
You cannot edit your posts in this forum
You cannot delete your posts in this forum
You cannot vote in polls in this forum
You cannot attach files in this forum
You cannot download files in this forum