Today is a free download without charge Download

Куда уходит любовь (Андрей Селиванов) [2014, Россия, мелодрама, HDTV (1080i]

Reply to topic
 
Author
Message

Omen ®

Longevity: 8 years 10 months

Posts: 181086

Торрент-статистика

Post 05-Mar-2016 21:00

[Quote]

Куда уходит любовь- -Страна: Россия
Жанр: мелодрама
Год выпуска: 2014
Производство: «Кинокомпания «Русское»»
Продолжительность: 01:32:10
Оригинальная аудиодорожка: русский
Cубтитры: нет-Режиссер: Андрей Селиванов-В ролях:
Мария Куликова, Сергей Астахов, Евгений Сидихин, Илья Коробко, Марина Волкова, Александр Левин (II), Людмила Чиркова-Описание:
В жизни Натальи царит гармония и благополучие. Героиня работает учительницей в школе, счастливо замужем вторым браком за бизнесменом Стасом, а ее сын Ваня учится в институте. Но за счастливым фасадом кроются тайны, которые не удастся скрывать вечно. Однажды Наталья узнаёт, что муж ведет двойную жизнь и за ее спиной встречается с другой женщиной. Героиня шокирована предательством, но вся правда приводит Наталью в ужас: любовницей Стаса оказывается невеста ее сына Вани…-Возраст: 12+-Качество: HDTV (1080i)
Формат: TS
Видео кодек: AVC
Аудио кодек: MPEG Audio

Видео: AVC, 1920 х 1080 (16:9), 25,000 кадр/сек, 7 488 Кбит/сек, 0.144 bit/pixel
Аудио: MPEG Audio 2, 48000 Hz, 256 Kbps, 2 канала
-

MediaInfo

General
ID : 1 (0x1)
Complete name : E:\Куда уходит любовь HDTV (1080i)\Куда уходит любовь HDTV (1080i).ts
Format : MPEG-TS
File size : 5.25 GiB
Duration : 1h 32mn
Overall bit rate mode : Variable
Overall bit rate : 8 149 Kbps
Video
ID : 1000 (0x3E8)
Menu ID : 1 (0x1)
Format : AVC
Format/Info : Advanced Video Codec
Format profile : [email protected]
Format settings, CABAC : Yes
Format settings, ReFrames : 4 frames
Codec ID : 27
Duration : 1h 32mn
Bit rate : 7 488 Kbps
Width : 1 920 pixels
Height : 1 080 pixels
Display aspect ratio : 16:9
Frame rate : 25.000 fps
Color space : YUV
Chroma subsampling : 4:2:0
Bit depth : 8 bits
Scan type : MBAFF
Scan type, store method : Interleaved fields
Scan order : Top Field First
Bits/(Pixel*Frame) : 0.144
Stream size : 4.82 GiB (92%)
Audio
ID : 1101 (0x44D)
Menu ID : 1 (0x1)
Format : MPEG Audio
Format version : Version 1
Format profile : Layer 2
Codec ID : 3
Duration : 1h 32mn
Bit rate mode : Constant
Bit rate : 256 Kbps
Channel(s) : 2 channels
Sampling rate : 48.0 KHz
Compression mode : Lossy
Stream size : 169 MiB (3%)
Language : English

Скриншоты


-Раздаю до первых 5-ти скачавших, на раздачи не возвращаюсь...-
Other forum [Profile] [PM]
Display posts from previous:    
Reply to topic

The time now is: Today 23:25

All times are GMT + 3 Hours



You cannot post new topics in this forum
You cannot reply to topics in this forum
You cannot edit your posts in this forum
You cannot delete your posts in this forum
You cannot vote in polls in this forum
You cannot attach files in this forum
You cannot download files in this forum