Today is a free download without charge Download

Знакомые картинки (Евгений Мигунов) [1957, СССР, сатира, DVB]

Reply to topic
 
Author
Message

Omen ®

Longevity: 7 years 11 months

Posts: 181087

Торрент-статистика

Post 05-Mar-2016 15:00

[Quote]

Знакомые картинки
Страна: СССР
Жанр: сатира
Продолжительность: 00:10:10
Год выпуска: 1957
Перевод: Не требуется
Русские субтитры: нет
Режиссёр: Евгений Мигунов
Роли озвучивали: Аркадий Райкин
Описание: Экранизация сатирических миниатюр А.Райкина
Доп. информация: Запись потока *.ts со спутника Eutelsat Hot Bird 13B/C/D, 13° в.д., ремукс в *.MKV программой VideoReDo.
Качество: DVB
Формат: MKV
Видео: MPEG2 Video, 704(768)x576 (4:3), 25,000 кадров/сек, 2564 Кбит/сек
Аудио: MPEG Audio, 48,0 КГц, 192 Кбит/сек, 2 канала
Субтитры: отсутствуют

Подробные технические данные

ОбщееУникальный идентификатор : 69044933872328322647983962530954889179 (0x33F192109133D4BEA4320B5344D847DB)Полное имя : N:\TORRENT\МУЛЬТ ЗНАКОМЫЕ КАРТИНКИ (inteRTV Nashe Kino).mkvФормат : MatroskaВерсия формата : Version 2Размер файла : 204 МбайтПродолжительность : 10 м.Режим общего битрейта : ПеременныйОбщий поток : 2812 Кбит/секПрограмма кодирования : Lavf52.64.2Библиотека кодирования : Lavf52.64.2
ВидеоИдентификатор : 1Формат : MPEG VideoВерсия формата : Version 2Профиль формата : [email protected]Параметр BVOP формата : НетПараметр матрицы формата : ВыборочнаяИдентификатор кодека : V_MPEG2Идентификатор кодека/Информация : MPEG 1 or 2 VideoПродолжительность : 10 м.Вид битрейта : ПеременныйБитрейт : 2564 Кбит/секМаксимальный битрейт : 15,0 Мбит/секШирина : 704 пикселяВысота : 576 пикселейСоотношение сторон : 4:3Соотношение сторон в оригинале : 4:3Режим частоты кадров : ПостоянныйЧастота кадров : 25,000 кадров/секСтандарт вещания : PALЦветовое пространство : YUVСубдискретизация насыщенности : 4:2:0Битовая глубина : 8 битТип развёртки : ЧересстрочнаяПорядок развёртки : Верхнее поле первоеМетод сжатия : С потерямиБит/(Пиксели*Кадры) : 0.253Временной код первого кадра : 00:00:00:00Оригинал временного кода : Group of pictures headerРазмер потока : 186 Мбайт (91%)Default : ДаForced : Нет
АудиоИдентификатор : 2Формат : MPEG AudioВерсия формата : Version 1Профиль формата : Layer 2Идентификатор кодека : A_MPEG/L2Идентификатор кодека/Подсказка : MP2Продолжительность : 10 м.Вид битрейта : ПостоянныйБитрейт : 192 Кбит/секКаналы : 2 каналаЧастота : 48,0 КГцМетод сжатия : С потерямиЗадержка видео : -1 м. 5 с.Размер потока : 14,0 Мбайт (7%)Язык : RussianDefault : ДаForced : Нет

Скриншоты

Other forum [Profile] [PM]
Display posts from previous:    
Reply to topic

The time now is: Today 13:07

All times are GMT + 3 Hours



You cannot post new topics in this forum
You cannot reply to topics in this forum
You cannot edit your posts in this forum
You cannot delete your posts in this forum
You cannot vote in polls in this forum
You cannot attach files in this forum
You cannot download files in this forum