Today is a free download without charge Download

Муж по вызову (Сергей Крутин) [2015, Россия, комедия, мелодрама, HDTV (1080i]

Reply to topic
 
Author
Message

Omen ®

Longevity: 8 years 10 months

Posts: 181086

Торрент-статистика

Post 05-Mar-2016 00:00

[Quote]

Муж по вызову- -Страна: Россия
Жанр: комедия, мелодрама
Год выпуска: 2015
Производство: «Компания „Пирамида“»
Продолжительность: 01:25:07
Оригинальная аудиодорожка: русский
Cубтитры: нет-Режиссер: Сергей Крутин-В ролях:
Дмитрий Марьянов, Мария Шукшина, Валерий Николаев, Екатерина Волкова, Александр Наумов,
Кристина Бабушкина, Юлия Галкина, Филипп Бледный, Максим Литовченко-Описание:
Застав своего мужа с любовницей, 40-летняя Инна выставила неверного супруга за дверь. В это же время к ее соседке Римме, живущей этажом выше, из деревни приехала сестра Алевтина. Она твердо намерена найти себе в городе мужа. Римма подает идею вызвать мужчину из службы «Муж на час» и специально ломает кран у себя на кухне. К счастью, слесарь по имени Андрей приезжает почти сразу и быстро укрощает бытовую стихию. Однако и сам оказывается ее жертвой: на нем не остается ни одной сухой вещи. Римма и Алевтина только рады раздеть симпатичного мужчину, обсушить и согреть рюмкой домашней наливочки. Но в этот момент с работы возвращается муж Риммы Аркаша, а он не из тех, кому легко объяснить, почему в его доме голый мокрый мужчина. В результате Андрей оказывается на балконе в одних трусах…-Возраст: 16+-Качество: HDTV (1080i)
Формат: TS
Видео кодек: AVC
Аудио кодек: MPEG Audio

Видео: AVC, 1920 х 1080 (16:9), 25,000 кадр/сек, 5 419 Кбит/сек, 0.105 bit/pixel
Аудио: MPEG Audio 2, 48000 Hz, 192 Kbps, 2 канала
-

MediaInfo

General
ID : 1 (0x1)
Complete name : E:\Муж по вызову HDTV (1080i)\Муж по вызову HDTV (1080i).ts
Format : MPEG-TS
File size : 3.51 GiB
Duration : 1h 25mn
Overall bit rate mode : Variable
Overall bit rate : 5 904 Kbps
Video
ID : 201 (0xC9)
Menu ID : 2201 (0x899)
Format : AVC
Format/Info : Advanced Video Codec
Format profile : [email protected]
Format settings, CABAC : Yes
Format settings, ReFrames : 4 frames
Codec ID : 27
Duration : 1h 25mn
Bit rate : 5 419 Kbps
Width : 1 920 pixels
Height : 1 080 pixels
Display aspect ratio : 16:9
Frame rate : 25.000 fps
Standard : Component
Color space : YUV
Chroma subsampling : 4:2:0
Bit depth : 8 bits
Scan type : Interlaced
Scan type, store method : Separated fields
Scan order : Top Field First
Bits/(Pixel*Frame) : 0.105
Stream size : 3.22 GiB (92%)
Color range : Limited
Color primaries : BT.709
Transfer characteristics : BT.709
Matrix coefficients : BT.709
Audio
ID : 69 (0x45)
Menu ID : 2201 (0x899)
Format : MPEG Audio
Format version : Version 1
Format profile : Layer 2
Codec ID : 3
Duration : 1h 25mn
Bit rate mode : Constant
Bit rate : 192 Kbps
Channel(s) : 2 channels
Sampling rate : 48.0 KHz
Compression mode : Lossy
Delay relative to video : -40ms
Stream size : 117 MiB (3%)
Language : English

Скриншоты


-Раздаю до первых 5-ти скачавших, на раздачи не возвращаюсь...-
Other forum [Profile] [PM]
Display posts from previous:    
Reply to topic

The time now is: Today 18:40

All times are GMT + 3 Hours



You cannot post new topics in this forum
You cannot reply to topics in this forum
You cannot edit your posts in this forum
You cannot delete your posts in this forum
You cannot vote in polls in this forum
You cannot attach files in this forum
You cannot download files in this forum