Today is a free download without charge Download

Овечка Долли была злая и рано умерла (Алексей Пиманов) [2015, Россия, фантастика, комедия, приключения, HDTV (1080i]

Reply to topic
 
Author
Message

Omen ®

Longevity: 8 years 10 months

Posts: 181086

Торрент-статистика

Post 04-Mar-2016 18:00

[Quote]

Овечка Долли была злая и рано умерла- -Страна: Россия
Жанр: фантастика, комедия, приключения
Год выпуска: 2015
Производство: «Пиманов и партнеры»
Продолжительность: 01:52:12
Оригинальная аудиодорожка: русский
Cубтитры: нет-Режиссер: Алексей Пиманов-В ролях:
Данила Шевченко, Юлия Савичева, Виктор Сухоруков, Роман Полянский, Виктория Маслова,
Борис Щербаков, Анна Шерлинг, Юлия Пожидаева, Антон Феоктистов, Ирина Ильинская-Описание:
Главный герой — современный молодой человек Никита, студент МИФИ, в результате научного эксперимента попадает в прошлое, где ему предстоит встретить не только своих молодых родителей, но найти новых друзей и обрести настоящую любовь в лице студентки Маши. Эта встреча заставляет его по-другому посмотреть на свою жизнь. Однако Никита вдруг понимает, что начинает стремительно стареть и спастись он может только если вернется обратно — в свое время. Но сделать это оказалось не так просто….-Возраст: 12+-Качество: HDTV (1080i)
Формат: MKV
Видео кодек: AVC
Аудио кодек: AC3

Видео: AVC, 1920 х 1080 (16:9), 25,000 кадр/сек, 8 433 Кбит/сек, 0.081 bit/pixel
Аудио: AC3, 48000 Hz, 384 Kbps, 6 каналов
-

MediaInfo

Unique ID : 227661938402668106888624487414868521847 (0xAB46182D00D0A8D7A66C471E7F10B377)
Complete name : D:\Раздачи\Овечка Долли была злая и рано умерла HDTV (1080i)\Овечка Долли была злая и рано умерла HDTV (1080i).mkv
Format : Matroska
Format version : Version 4 / Version 2
File size : 6.91 GiB
Duration : 1h 52mn
Overall bit rate : 8 821 Kbps
Movie name : [email protected]
Encoded date : UTC 2016-01-04 06:32:53
Writing application : mkvmerge v7.1.0 ('Good Love') 64bit built on Jul 27 2014 13:06:55
Writing library : libebml v1.3.0 + libmatroska v1.4.1
Video
ID : 1
Format : AVC
Format/Info : Advanced Video Codec
Format profile : [email protected]
Format settings, CABAC : Yes
Format settings, ReFrames : 4 frames
Format settings, GOP : M=4, N=28
Codec ID : V_MPEG4/ISO/AVC
Duration : 1h 52mn
Bit rate : 8 433 Kbps
Width : 1 920 pixels
Height : 1 080 pixels
Display aspect ratio : 16:9
Frame rate mode : Variable
Frame rate : 50.000 fps
Original frame rate : 25.000 fps
Standard : Component
Color space : YUV
Chroma subsampling : 4:2:0
Bit depth : 8 bits
Scan type : Interlaced
Scan type, store method : Separated fields
Scan order : Top Field First
Bits/(Pixel*Frame) : 0.081
Stream size : 6.61 GiB (96%)
Default : Yes
Forced : No
Color range : Limited
Color primaries : BT.709
Transfer characteristics : BT.709
Matrix coefficients : BT.709
Audio
ID : 2
Format : AC-3
Format/Info : Audio Coding 3
Mode extension : CM (complete main)
Format settings, Endianness : Big
Codec ID : A_AC3
Duration : 1h 52mn
Bit rate mode : Constant
Bit rate : 384 Kbps
Channel(s) : 6 channels
Channel positions : Front: L C R, Side: L R, LFE
Sampling rate : 48.0 KHz
Frame rate : 31.250 fps (1536 spf)
Compression mode : Lossy
Delay relative to video : 83ms
Stream size : 308 MiB (4%)
Language : Russian
Default : Yes
Forced : No

Скриншоты


-Раздаю до первых 5-ти скачавших, на раздачи не возвращаюсь...-
Other forum [Profile] [PM]
Display posts from previous:    
Reply to topic

The time now is: Today 19:49

All times are GMT + 3 Hours



You cannot post new topics in this forum
You cannot reply to topics in this forum
You cannot edit your posts in this forum
You cannot delete your posts in this forum
You cannot vote in polls in this forum
You cannot attach files in this forum
You cannot download files in this forum