Today is a free download without charge Download

Москва - Лопушки (Юрий Морозов) [2014, Россия, мелодрама, комедия, HDTV 1080i]

Reply to topic
 
Author
Message

Omen ®

Longevity: 8 years 10 months

Posts: 181086

Торрент-статистика

Post 03-Mar-2016 21:00

[Quote]

Москва - Лопушки- -Страна: Россия
Жанр: мелодрама, комедия
Год выпуска: 2014
Производство: «Про100 Фильм»
Продолжительность: 01:28:38
Оригинальная аудиодорожка: русский
Cубтитры: нет-Режиссер: Юрий Морозов-В ролях:
Анастасия Задорожная, Алла Юганова, Виталий Альшанский, Елена Мольченко,
Дмитрий Наумов, Алина Бабак, Мария Кунах, Эрик Дик, Женя Хомжукова-Описание:
Две сестры — две полные противоположности. Полина — городская «фифа», работающая в крупном книжном издательстве. Маша — деревенская простушка, которая целыми днями возится в огороде, готовя на продажу заезжающим коммерсантам фермерские продукты. Жених Полины — ее босс, видный бизнесмен. Ухажер Маши — Вася, работяга и рубаха-парень.
Все меняется в одночасье, когда в издательство к Полине заявляется жена ее босса, с которой он все как-то забывал развестись, и разом лишает Полину и жениха, и работы. Машина тихая жизнь в Лопушках круто переворачивается, когда скупщики продуктов ставят деревенским условие: либо селяне вдвое снижают цены, либо у них вообще не будут ничего покупать.
Маша и Полина меняются местами: Полина мчится в деревню зализывать любовные раны, Маша рвется в Москву самостоятельно налаживать поставку продукции в город, чтобы не прогореть на процентах от посредников.
Попадая в совершенно новые условия, каждая из девушек имеет возможность по-новому взглянуть на свою жизнь и проявить себя. У рафинированной Полины на деревенской почве открывается второе дыхание, она строит планы по реконструкции старинной усадьбы и налаживает эко-туризм в Лопушки. Да и Маша оказывается не лыком шита: со свойственной ей хозяйственностью и практической хваткой она выбивает павильон для лопушковской продукции на московском рынке.
Но история, на самом деле, вовсе не о бизнесе. А о том, как две молодые девушки через смех и слезы находят не только свое призвание в жизни, но и настоящую любовь, которая явится, как всегда, неожиданно и расставит все по своим местам.-Возраст: 12+-Качество: HDTV (1080i)
Формат: TS
Видео кодек: AVC
Аудио кодек: MPEG Audio

Видео: AVC, 1920 х 1080 (16:9), 25,000 кадр/сек, 7 940 Кбит/сек, 0.153 bit/pixel
Аудио: MPEG Audio 2, 48000 Hz, 256 Kbps, 2 канала
-

MediaInfo

General
ID : 1 (0x1)
Complete name : D:\Раздачи\Москва - Лопушки HDTV (1080i)\Moskva.Lopushki.2014.HDTV.(1080i).MediaClub.ts
Format : MPEG-TS
File size : 5.34 GiB
Duration : 1h 28mn
Overall bit rate mode : Variable
Overall bit rate : 8 625 Kbps
Video
ID : 1000 (0x3E8)
Menu ID : 1 (0x1)
Format : AVC
Format/Info : Advanced Video Codec
Format profile : [email protected]
Format settings, CABAC : Yes
Format settings, ReFrames : 4 frames
Codec ID : 27
Duration : 1h 28mn
Bit rate : 7 940 Kbps
Width : 1 920 pixels
Height : 1 080 pixels
Display aspect ratio : 16:9
Frame rate : 25.000 fps
Color space : YUV
Chroma subsampling : 4:2:0
Bit depth : 8 bits
Scan type : MBAFF
Scan type, store method : Interleaved fields
Scan order : Top Field First
Bits/(Pixel*Frame) : 0.153
Stream size : 4.92 GiB (92%)
Audio
ID : 1101 (0x44D)
Menu ID : 1 (0x1)
Format : MPEG Audio
Format version : Version 1
Format profile : Layer 2
Codec ID : 3
Duration : 1h 28mn
Bit rate mode : Constant
Bit rate : 256 Kbps
Channel(s) : 2 channels
Sampling rate : 48.0 KHz
Compression mode : Lossy
Stream size : 162 MiB (3%)
Language : English

Скриншоты


-Раздаю до первых 5-ти скачавших, на раздачи не возвращаюсь...-
Other forum [Profile] [PM]
Display posts from previous:    
Reply to topic

The time now is: Today 20:52

All times are GMT + 3 Hours



You cannot post new topics in this forum
You cannot reply to topics in this forum
You cannot edit your posts in this forum
You cannot delete your posts in this forum
You cannot vote in polls in this forum
You cannot attach files in this forum
You cannot download files in this forum