Today is a free download without charge Download

Гарри Поттер и Дары смерти: Часть 1 / Harry Potter and the Deathly Hallows: Part 1 [Дэвид Йэтс (2010) фэнтези, драма, детектив, приключения, BDRip 720р] DUB + SUB RUS END

Reply to topic
 
Author
Message

Delia ®

Gender:

Longevity: 10 years

Posts: 1821

Торрент-статистика

Post 25-Jul-2012 13:49

[Quote]

Гарри Поттер и дары смерти: Часть I / Harry Potter and the Deathly Hallows: Part 1«Опасность повсюду»--
Год выпуска: 2010
Страна: США , Великобритания
Жанр: фэнтези, драма, детектив, приключения, ...
Продолжительность: 02:26:05
Перевод: Профессиональный (дублированный)
Субтитры: Russian, Russian (for), English (SDH) (srt)
Режиссер: Дэвид Йэтс
Сценарий: Стивен Кловз, Дж.К. Роулинг
Продюсер: Дэвид Баррон, Дэвид Хейман, Дж.К. Роулинг, ...
Оператор: Эдуарду Серра
Композитор: Александр Деспла
Художник: Стюарт Крэйг, Эндрю Эклэнд-Сноу, Эшли Винтер, ...
Монтаж: Марк Дэй- В ролях: Дэниэл Рэдклифф (Daniel Radcliffe), Руперт Гринт (Rupert Grint), Эмма Уотсон (Emma Watson), Том Фелтон (Tom Felton), Бонни Райт (Bonnie Wright), Алан Рикман (Alan Rickman), Рэйф Файнс (Ralph Fiennes), Хелена Бонем Картер (Helena Bonham Carter), Майкл Гэмбон (Michael Gambon), Брендан Глисон (Brendan Gleeson), Джон Хёрт (John Hurt), Эванна Линч (Evanna Lynch), Рис Иванс (Rhys Ifans), Робби Колтрейн (Robbie Coltrane), Джейсон Айзекс (Jason Isaacs), Билл Найи (Bill Nighy), Ричард Гриффитс (Richard Griffiths), Гарри Меллинг (Harry Melling), Джули Уолтерс (Julie Walters), Иэн Келли (Ian Kelly)
Описание: Гарри Поттера ждёт самое страшное испытание в жизни — смертельная схватка с Волан-де-Мортом. Ждать помощи не от кого — Гарри одинок, как никогда&3; Друзья и враги Гарри предстают в совершенно неожиданном свете. Граница между Добром и Злом становится всё призрачнее...-Рейтинг MPAA: -- --Качество: BDRip720p
Формат: MKV
Видео кодек: H.264 (AVC)
Аудио кодеk: AC3
Видео: 1280x534 (2.35:1), 23.976 fps, AVC, 3 900 Kbps
Аудио: AC3, 384 Kbps, 48.0 KHz, 6 ch

x264

Код:
x264 [info]: frame I:1540  Avg QP:13.54  size:108618
x264 [info]: frame P:47087 Avg QP:15.63  size: 40966
x264 [info]: frame B:161529 Avg QP:17.79  size: 13472

МедиаИнфо

Код:
General
Complete name                    : Garri.Potter.i.Dary.smerti.Chast.1.2010.BDRip-F.HD.mkv
Format                           : Matroska
File size                        : 4.37 GiB
Duration                         : 2h 26mn
Overall bit rate                 : 4 285 Kbps
Encoded date                     : UTC 2012-07-25 07:13:18
Writing application              : mkvmerge v5.7.0 ('The Whirlwind') built on Jul  8 2012 20:08:51
Writing library                  : libebml v1.2.3 + libmatroska v1.3.0
Video
ID                               : 1
Format                           : AVC
Format/Info                      : Advanced Video Codec
Format profile                   : [email protected]
Format settings, CABAC           : Yes
Format settings, ReFrames        : 9 frames
Muxing mode                      : Container [email protected]
Codec ID                         : V_MPEG4/ISO/AVC
Duration                         : 2h 26mn
Bit rate                         : 3 900 Kbps
Width                            : 1 280 pixels
Height                           : 534 pixels
Display aspect ratio             : 2.35:1
Frame rate                       : 23.976 fps
Color space                      : YUV
Chroma subsampling               : 4:2:0
Bit depth                        : 8 bits
Scan type                        : Progressive
Bits/(Pixel*Frame)               : 0.238
Stream size                      : 3.89 GiB (89%)
Writing library                  : x264 core 125 r2200 999b753
Encoding settings                : cabac=1 / ref=9 / deblock=1:-1:-1 / analyse=0x3:0x113 / me=umh / subme=10 / psy=1 / psy_rd=1.00:0.15 / mixed_ref=1 / me_range=32 / chroma_me=1 / trellis=2 / 8x8dct=1 / cqm=0 / deadzone=21,11 / fast_pskip=0 / chroma_qp_offset=-3 / threads=6 / lookahead_threads=1 / sliced_threads=0 / nr=0 / decimate=1 / interlaced=0 / bluray_compat=0 / constrained_intra=0 / bframes=8 / b_pyramid=2 / b_adapt=2 / b_bias=0 / direct=3 / weightb=1 / open_gop=0 / weightp=2 / keyint=240 / keyint_min=23 / scenecut=40 / intra_refresh=0 / rc=2pass / mbtree=0 / bitrate=3900 / ratetol=1.0 / qcomp=0.80 / qpmin=10 / qpmax=51 / qpstep=4 / cplxblur=20.0 / qblur=0.5 / ip_ratio=1.40 / pb_ratio=1.30 / aq=2:0.90
Color primaries                  : BT.709-5, BT.1361, IEC 61966-2-4, SMPTE RP177
Transfer characteristics         : BT.709-5, BT.1361
Matrix coefficients              : BT.709-5, BT.1361, IEC 61966-2-4 709, SMPTE RP177
Audio
ID                               : 2
Format                           : AC-3
Format/Info                      : Audio Coding 3
Mode extension                   : CM (complete main)
Codec ID                         : A_AC3
Duration                         : 2h 26mn
Bit rate mode                    : Constant
Bit rate                         : 384 Kbps
Channel(s)                       : 6 channels
Channel positions                : Front: L C R, Side: L R, LFE
Sampling rate                    : 48.0 KHz
Bit depth                        : 16 bits
Stream size                      : 401 MiB (9%)
Language                         : Russian
Text #1
ID                               : 3
Format                           : UTF-8
Codec ID                         : S_TEXT/UTF8
Codec ID/Info                    : UTF-8 Plain Text
Language                         : Russian
Text #2
ID                               : 4
Format                           : UTF-8
Codec ID                         : S_TEXT/UTF8
Codec ID/Info                    : UTF-8 Plain Text
Title                            : FOR
Language                         : Russian
Text #3
ID                               : 5
Format                           : UTF-8
Codec ID                         : S_TEXT/UTF8
Codec ID/Info                    : UTF-8 Plain Text
Title                            : SDH
Menu
00:00:00.000                     : en:Chapter 01
00:04:18.508                     : en:Chapter 02
00:09:46.626                     : en:Chapter 03
00:15:16.205                     : en:Chapter 04
00:19:13.569                     : en:Chapter 05
00:26:04.228                     : en:Chapter 06
00:31:37.770                     : en:Chapter 07
00:35:43.306                     : en:Chapter 08
00:41:37.536                     : en:Chapter 09
00:45:45.617                     : en:Chapter 10
00:50:14.094                     : en:Chapter 11
00:55:02.715                     : en:Chapter 12
00:58:31.174                     : en:Chapter 13
01:03:41.358                     : en:Chapter 14
01:10:02.197                     : en:Chapter 15
01:14:30.924                     : en:Chapter 16
01:18:48.848                     : en:Chapter 17
01:22:17.598                     : en:Chapter 18
01:24:55.089                     : en:Chapter 19
01:28:03.194                     : en:Chapter 20
01:32:34.173                     : en:Chapter 21
01:37:40.228                     : en:Chapter 22
01:42:37.567                     : en:Chapter 23
01:47:54.133                     : en:Chapter 24
01:53:48.112                     : en:Chapter 25
01:57:30.960                     : en:Chapter 26
02:01:27.988                     : en:Chapter 27
02:05:42.159                     : en:Chapter 28
02:09:42.732                     : en:Chapter 29
02:13:16.029                     : en:Chapter 30
02:14:47.120                     : en:Chapter 31

Знаете ли Вы, что...

» Возглавить постановку могли М. Найт Шьямалан и Гильермо Дель Торо.
» Дэвид Холмс, каскадер и дублер Даниэла Рэдклиффа, получил серьёзную травму спины при падении во время производства взрыва.
» Джон Уильямс, композитор первых трех частей о Гарри Поттере, выражал интерес вернуться к работе в Гарри Поттер и Дары смерти. Часть 1.
» Билла Уизли играет Домналл Глисон, сын актера Брендана Глисона.
» В фильме можно найти немало отсылок к тоталитарному искусству. Художник-постановщик Стюарт Крэйг при создании декораций интерьеров вдохновлялся образчиками советской архитектуры и скульптуры эпохи сталинского тоталитаризма. По его словам, внешний вид главного холла министерства магии навеян видами станций Московского метро, а именно — станцией Площадь Революции.
» Горельеф скульптуры в холле министерства магии это переработанная работа Ивана Шадра «Борьба с землей» А на вершине монумента находится не что иное, как слегка подправленная копия «Рабочего и колхозницы». Стюарт Крэйг признался, что скульптура Веры Мухиной произвела на него неизгладимое впечатление.
» В кабинете Долорес Амбридж лежат брошюры по борьбе с магловскими выродками. Обложка одной из них оформлена в стиле работ Д. Моора, а внешне персонаж очень напоминает Максима Горького. Это не удивительно, поскольку во время работы над проектом в мастерской Крэйга постоянно находились глиняная копия памятника Максиму Горькому, бюсты Ленина и Сталина. Стены украшали советские плакаты 30 — 40-х годов, на столах были разложены фотографии сталинских высоток и прочих образчиков монументального советского строительства.
» Для съемок эпизода уничтожения крестража, было создано 40 версий медальона Салазара Слизерина.


Скриншоты

     
     

_________________
Человек – это канат, натянутый между животным и сверхчеловеком, – канат над пропастью.
В человеке ценно то, что он мост, а не цель. Фридрих Ницше
Other forum [Profile] [PM]
Similar theme
Forum Topic Author Torrent Replies Last Post
./templates/default/images/folder_dl.gif Детская литература Джоан Кэтлин Роулинг | Гарри Поттер. Полное собрание [7 книг] (2005-2007) [PDF, DJVU, FB2, EPUB] Anonymous
1 | 0

0 | 1848

4

2016-08-04 01:27
Anonymous Latest
Display posts from previous:    
Reply to topic

The time now is: Today 01:41

All times are GMT + 3 Hours



You cannot post new topics in this forum
You cannot reply to topics in this forum
You cannot edit your posts in this forum
You cannot delete your posts in this forum
You cannot vote in polls in this forum
You cannot attach files in this forum
You cannot download files in this forum