Today is a free download without charge Download

Женщина в черном / The Woman in Black (1989) DVDRip

Reply to topic
 
Author
Message

Delia ®

Gender:

Longevity: 11 years

Posts: 1821

Торрент-статистика

Post 27-Feb-2011 18:59

[Quote]

Женщина в черном / The Woman in Black (1989) DVDRip- Русское название: Женщина в черном
Оригинальное название: The Woman in Black
Год выпуска: 1989
Жанр: Ужасы, Триллер
Описание фильма:
Этот фильм о мрачном доме, кладбище, и загадочной даме. Фильм будет держать в напряжении и неведении до самого конца этой мистической истории. На западном побережье Англии умирает одинокая дама Эллис Драблоу. Молодой юрист Артур Кидд приезжает из Лондона на ее похороны, чтобы разобрать бумаги покойной. Кидд и понятия не имеет о том, какие ужасные тайны хранятся за покосившимися окнами старого дома. Но встретив вначале на похоронах, а затем на кладбище молодую женщину, одетую в черное, он начинает беспокоиться. Кто она? Артур задает вопросы, но местные жители отказываются говорить о женщине в черном. И Кидду остается одно — искать с ней встречи снова и снова, чтобы разгадать страшную загадку...
Доп. информация: Жуткий фильм. Всё-таки англичане знают в этом толк.
Режиссер: Herbert Wise /Херберт Уайз/
Актеры: Adrian Rawlins /Адриан Роулинз/, Bernard Hepton /Бернард Хептон/, David Daker /Дэвид Дейкер/, Pauline Moran /Полин Моран/, David Ryall /Дэвид Райалл/
Продолжительность: 01:41:38
Перевод: Одноголосый закадровый

Дата мировой премьеры: 24 декабря 1989
Видеокодек: Xvid
Битрейт видео: ~1803 kbps avg
Размер кадра: 624x464
Качество видео: DVDRip
Аудиокодек: MP3
Битрейт аудио: ~128.00 kbps avg
Audio 1: 48 kHz, MPEG Layer 3, 2 ch, ~128.00 kbps avg
Audio 2: 48 kHz, MPEG Layer 3, 2 ch, ~128.00 kbps avg
MediaInfo:
Общее
Полное имя : D:\Торрент\Фильмы\Женщина в черном (1989)\Genshina v chernom DVDRip by GeBorZa.avi
Формат : AVI
Формат/Информация : Audio Video Interleave
Размер файла : 1,47 Гбайт
Продолжительность : 1 ч. 41 м.
Общий поток : 2077 Кбит/сек
Программа кодирования : VirtualDubMod 1.5.10.2 (build 2540/release)
Библиотека кодирования : VirtualDubMod build 2540/release
Видео
Идентификатор : 0
Формат : MPEG-4 Visual
Профиль формата : Advanced [email protected]
Параметр BVOP формата : 1
Параметр QPel формата : Нет
Параметр GMC формата : Без точки перехода
Параметр матрицы формата : Выборочная
Идентификатор кодека : XVID
Идентификатор кодека/Подсказка : XviD
Продолжительность : 1 ч. 41 м.
Битрейт : 1805 Кбит/сек
Ширина : 624 пикс.
Высота : 464 пикс.
Соотношение сторон : 4:3
Частота кадров : 29,970 кадр/сек
Цветовое пространство : YUV
Подвыборка цветности : 4:2:0
Битовая глубина : 8 бит
Тип развёртки : Прогрессивная
Метод сжатия : С потерями
Бит/(Пиксели*Кадры) : 0.208
Размер потока : 1,28 Гбайт (87%)
Библиотека кодирования : XviD 1.2.0.dev47 (UTC 2006-11-01)
Аудио #1
Идентификатор : 1
Формат : MPEG Audio
Версия формата : Version 1
Профиль формата : Layer 3
Режим : Joint stereo
Расширение режима : MS Stereo
Идентификатор кодека : 55
Идентификатор кодека/Подсказка : MP3
Продолжительность : 1 ч. 41 м.
Вид битрейта : Постоянный
Битрейт : 128 Кбит/сек
Канал(ы) : 2 канала(ов)
Частота : 48,0 КГц
Метод сжатия : С потерями
Размер потока : 92,9 Мбайт (6%)
Выравнивание : Соединение по промежуткам
Продолжительность промежутка : 33 мс. (1,00 видеокадр)
Время предзагрузки промежутка : 504 ms
Библиотека кодирования : LAME3.90
Настройки программы : -m j -V 4 -q 5 -lowpass 15.3 -b 128
Аудио #2
Идентификатор : 2
Формат : MPEG Audio
Версия формата : Version 1
Профиль формата : Layer 3
Режим : Joint stereo
Расширение режима : MS Stereo
Идентификатор кодека : 55
Идентификатор кодека/Подсказка : MP3
Продолжительность : 1 ч. 41 м.
Вид битрейта : Постоянный
Битрейт : 128 Кбит/сек
Канал(ы) : 2 канала(ов)
Частота : 48,0 КГц
Метод сжатия : С потерями
Размер потока : 92,9 Мбайт (6%)
Выравнивание : Соединение по промежуткам
Продолжительность промежутка : 33 мс. (1,00 видеокадр)
Время предзагрузки промежутка : 504 ms
Библиотека кодирования : LAME3.90
Настройки программы : -m j -V 4 -q 5 -lowpass 15.3 -b 128



Скриншоты:

        

_________________
Человек – это канат, натянутый между животным и сверхчеловеком, – канат над пропастью.
В человеке ценно то, что он мост, а не цель. Фридрих Ницше


Last edited by Delia on 2011-08-25 22:48; edited 1 time in total
Other forum [Profile] [PM]

1338-1

Longevity: 9 years 5 months

Posts: 2

Торрент-статистика

Post 17-Apr-2012 22:40 (after 1 year 1 month)

[Quote]

спасибо за фильм автору и сайту все просто супер остался доволен картиной
_________________
Женщина в черном смотреть онлайн
Other forum [Profile] [PM]
Similar theme
Forum Topic Author Torrent Replies Last Post
./templates/default/images/folder_dl.gif Зарубежные фильмы с переводом Замужняя Женщина. Зов Страсти (русский перевод) / Married Woman: The Call Of Lust / 43 Ans Les Nuits D'une Femme Mariee (Gazzman / Marc Dorcel) [2015 г., Feature, Anal Sex, DP, DVDRip] (Rebecca More, Alexa Tomas, Honey Demon, Aida Sweet)[RUS] Anonymous
1 | 0

0 | 5510

44

2017-01-14 01:12
Anonymous Latest
Display posts from previous:    
Reply to topic

The time now is: Today 12:08

All times are GMT + 3 Hours



You cannot post new topics in this forum
You cannot reply to topics in this forum
You cannot edit your posts in this forum
You cannot delete your posts in this forum
You cannot vote in polls in this forum
You cannot attach files in this forum
You cannot download files in this forum