Today is a free download without charge Download

Ставка на любовь (Артем Михалков) [2015, Россия, комедия, мелодрама, WEB-DL 1080p] + Original Rus

Reply to topic
 
Author
Message

Omen ®

Longevity: 8 years 10 months

Posts: 181086

Торрент-статистика

Post 29-Feb-2016 09:00

[Quote]

Ставка на любовь
Страна: Россия
Жанр: комедия, мелодрама
Год выпуска: 2015
Продолжительность: 01:32:01-Перевод: Не требуется
Cубтитры: нет
Оригинальная аудиодорожка: русский-Режиссер: Артем Михалков-В ролях: Ованнес Азоян, Андрей Бурковский, Катерина Шпица, Ян Цапник, Вадим Андреев, Ольга Тумайкина, Александр Ревва, Дмитрий Хрусталев, Ирина Чипиженко, Алла Михеева
Описание: Костя и Давид - друзья детства, и вот спустя годы им, наконец, суждено проверить дружбу на прочность. Давид собирается сделать предложение своей возлюбленной, Анне, а Костя хочет выйти в финал международного чемпионата по покеру. Два, казалось бы, совершенно несвязанных события, становятся решающими в жизни друзей, так как Давиду придется играть в покер, а Косте - спасать свадьбу друга! Смогут ли они оставаться собой и спасти положение, поменявшись местами?-Релиз от:
-Тип релиза: WEB-DL 1080p
Контейнер: MKV-Видео: MPEG4 Video (H264) 1920x804p, ~ 4353 kbps, 24 fps, 0.117 Bits/(Pixel*Frame)-Аудио: 48 kHz, AC3, 3/2 (L,C,R,l,r) + LFE ch, ~384.00 kbps avg iTunes

MediaInfo

General
Уникальный идентификатор : 172228904553752222392338165539827030624 (0x81921498D2EDB36AA278F0E7C48B1A60)
Полное имя : D:\STAVKA_LOVE_WEB_DL.mkv
Формат : Matroska
Версия формата : Version 4 / Version 2
Размер файла : 3.11 GiB
Продолжительность : 1h 32mn
Общий поток : 4 833 Kbps
Название фильма : STAVKA_LOVE_WEB_DL_1080p-BLUEBIRD
Дата кодирования : UTC 2016-02-28 22:34:42
Программа кодирования : mkvmerge v7.1.0 ('Good Love') 64bit built on Jul 27 2014 13:06:55
Библиотека кодирования : libebml v1.3.0 + libmatroska v1.4.1
DURATION : 01:32:01.408000000
NUMBER_OF_FRAMES : 172544
NUMBER_OF_BYTES : 265027584
_STATISTICS_WRITING_APP : mkvmerge v7.1.0 ('Good Love') 64bit built on Jul 27 2014 13:06:55
_STATISTICS_WRITING_DATE_UTC : 2016-02-28 22:34:42
_STATISTICS_TAGS : BPS DURATION NUMBER_OF_FRAMES NUMBER_OF_BYTES
Video
Идентификатор : 1
Формат : AVC
Формат/Информация : Advanced Video Codec
Профиль формата : [email protected]
Параметр CABAC формата : Yes
Параметр ReFrames формата : 5 frames
Идентификатор кодека : V_MPEG4/ISO/AVC
Продолжительность : 1h 32mn
Битрейт : 4 353 Kbps
Ширина : 1 920 pixels
Высота : 804 pixels
Соотношение сторон : 2.40:1
Режим частоты кадров : Constant
Частота кадров : 24.000 fps
Цветовое пространство : YUV
Субдискретизация насыщенности : 4:2:0
Битовая глубина : 8 bits
Тип развёртки : Progressive
Бит/(Пиксели*Кадры) : 0.117
Размер потока : 2.80 GiB (90%)
Заголовок : STAVKA_LOVE_WEB_DL_1080p-BLUEBIRD
Язык : Russian
Default : Yes
Forced : No
Основные цвета : BT.709
Характеристики трансфера : BT.709
Коэффициенты матрицы : BT.709
colour_range : Limited
Audio
Идентификатор : 2
Формат : AC-3
Формат/Информация : Audio Coding 3
Расширение режима : CM (complete main)
Параметр Endianness формата : Big
Идентификатор кодека : A_AC3
Продолжительность : 1h 32mn
Вид битрейта : Constant
Битрейт : 384 Kbps
Каналы : 6 channels
Расположение каналов : Front: L C R, Side: L R, LFE
Частота : 48.0 KHz
Битовая глубина : 16 bits
Метод сжатия : Lossy
Размер потока : 253 MiB (8%)
Заголовок : [ORIGINAL] DD 5.1 @ 384 kbps
Язык : Russian
Default : Yes
Forced : No
Menu
00:00:00.000 : en:Глава 1
00:06:03.458 : en:Глава 2
00:11:13.041 : en:Глава 3
00:16:42.707 : en:Глава 4
00:23:10.290 : en:Глава 5
00:29:08.915 : en:Глава 6
00:34:10.998 : en:Глава 7
00:39:49.664 : en:Глава 8
00:45:27.955 : en:Глава 9
00:51:25.621 : en:Глава 10
00:56:42.246 : en:Глава 11
01:01:55.912 : en:Глава 12
01:07:32.287 : en:Глава 13
01:13:08.453 : en:Глава 14
01:18:57.036 : en:Глава 15
01:24:27.036 : en:Глава 16

Скриншоты

Other forum [Profile] [PM]
Display posts from previous:    
Reply to topic

The time now is: Today 20:49

All times are GMT + 3 Hours



You cannot post new topics in this forum
You cannot reply to topics in this forum
You cannot edit your posts in this forum
You cannot delete your posts in this forum
You cannot vote in polls in this forum
You cannot attach files in this forum
You cannot download files in this forum