Today is a free download without charge Download

Тёмный мир: Равновесие (Олег Асадулин) [2013, Россия, комедия, BDRip 1080p] [GER Transfer] + Sub Ger

Reply to topic
 
Author
Message

Omen ®

Longevity: 8 years 10 months

Posts: 181086

Торрент-статистика

Post 29-Feb-2016 00:00

[Quote]

Тёмный мир: Равновесие
Страна: Россия
Жанр: фэнтези, приключения
Год выпуска: 2013
Продолжительность: 01:35:21
Перевод: Не требуется
Cубтитры немецкие
Оригинальная аудиодорожка: русский
Режиссёр: Олег Асадулин
В ролях: Мария Пирогова, Павел Прилучный, Макар Запорожский, Евгения Брик, Александр Ратников, Владислав Абашин, Петр Семак, Алиса Хазанова, Валерий Опёнкин, Тимофей Носков
Описание: Каждый день они крадут твои силы, твои эмоции, твою любовь. Мы называем их Тени. Работа таких, как мы — доставлять их обратно в Тёмный мир. Надвигается катастрофа, и человечество может оказаться во власти тьмы…
И только мы можем сохранить равновесие.
Сэмпл: https://www.sendspace.com/file/87qmep
Качество видео: BDRip 1080p
Формат видео: MKV
Видео: MPEG-4 AVC/H.264 / 12.5 mbps / 1920x1080 / 23.976 fps
Аудио: Rus / DTS-HD MA / 6 ch / 1635 kbps / 48 kHz
Аудио 2: Ger / DTS / 6 ch / 768 kbps / 48 kHz
Формат субтитров: softsub (SRT)
Доп. информация о субтитрах: Немецкие (forced)
#Сохранены оригинальные чаптеры как на Blu-ray

MediaInfo

General
Unique ID : 180228894758130823567439512408164103093 (0x8796D2910DD9D02FAA434E7187DB73B5)
Complete name : J:\Torrents\Temnyj.mir.Ravnovesie.2013.O.1080p.BluRay.x264.Rus.Ger.dts.uniongang.mkv
Format : Matroska
Format version : Version 4 / Version 2
File size : 9.94 GiB
Duration : 1h 35mn
Overall bit rate : 14.9 Mbps
Movie name : Temnyj.mir.Ravnovesie.2013.O.1080p.BluRay.x264.Rus.Ger.dts.uniongang by Champion
Encoded date : UTC 2015-01-15 15:21:04
Writing application : mkvmerge v7.5.0 ('Glass Culture') 64bit built on Jan 4 2015 16:48:44
Writing library : libebml v1.3.1 + libmatroska v1.4.2
Video
ID : 1
Format : AVC
Format/Info : Advanced Video Codec
Format profile : [email protected]
Format settings, CABAC : Yes
Format settings, ReFrames : 4 frames
Codec ID : V_MPEG4/ISO/AVC
Duration : 1h 35mn
Bit rate : 12.5 Mbps
Width : 1 920 pixels
Height : 1 080 pixels
Display aspect ratio : 16:9
Frame rate mode : Constant
Frame rate : 23.976 fps
Color space : YUV
Chroma subsampling : 4:2:0
Bit depth : 8 bits
Scan type : Progressive
Bits/(Pixel*Frame) : 0.252
Stream size : 8.34 GiB (84%)
Title : Temnyj.mir.Ravnovesie.2013.O.1080p.BluRay.x264.Rus.Ger.dts.uniongang
Writing library : x264 core 125 r2200 999b753
Encoding settings : cabac=1 / ref=4 / deblock=1:-3:-3 / analyse=0x3:0x113 / me=umh / subme=10 / psy=1 / psy_rd=1.00:0.10 / mixed_ref=1 / me_range=24 / chroma_me=1 / trellis=2 / 8x8dct=1 / cqm=0 / deadzone=21,11 / fast_pskip=1 / chroma_qp_offset=-3 / threads=6 / lookahead_threads=1 / sliced_threads=0 / nr=0 / decimate=1 / interlaced=0 / bluray_compat=0 / constrained_intra=0 / bframes=11 / b_pyramid=2 / b_adapt=1 / b_bias=0 / direct=1 / weightb=1 / open_gop=0 / weightp=2 / keyint=250 / keyint_min=23 / scenecut=40 / intra_refresh=0 / rc_lookahead=40 / rc=2pass / mbtree=1 / bitrate=12529 / ratetol=1.0 / qcomp=0.60 / qpmin=0 / qpmax=69 / qpstep=4 / cplxblur=20.0 / qblur=0.5 / ip_ratio=1.30 / aq=1:1.00
Language : English
Default : Yes
Forced : No
Audio #1
ID : 2
Format : DTS
Format/Info : Digital Theater Systems
Format profile : MA / Core
Mode : 16
Format settings, Endianness : Big
Codec ID : A_DTS
Duration : 1h 35mn
Bit rate mode : Variable / Constant
Bit rate : 1 635 Kbps / 768 Kbps
Channel(s) : 6 channels
Channel positions : Front: L C R, Side: L R, LFE
Sampling rate : 48.0 KHz
Frame rate : 93.750 fps (512 spf)
Bit depth : 16 bits
Compression mode : Lossless / Lossy
Stream size : 1.09 GiB (11%)
Language : Russian
Default : No
Forced : No
Audio #2
ID : 3
Format : DTS
Format/Info : Digital Theater Systems
Mode : 16
Format settings, Endianness : Big
Codec ID : A_DTS
Duration : 1h 35mn
Bit rate mode : Constant
Bit rate : 768 Kbps
Channel(s) : 6 channels
Channel positions : Front: L C R, Side: L R, LFE
Sampling rate : 48.0 KHz
Frame rate : 93.750 fps (512 spf)
Bit depth : 24 bits
Compression mode : Lossy
Stream size : 524 MiB (5%)
Language : German
Default : No
Forced : No
Text
ID : 4
Format : UTF-8
Codec ID : S_TEXT/UTF8
Codec ID/Info : UTF-8 Plain Text
Duration : 1h 29mn
Bit rate : 1 bps
Count of elements : 18
Stream size : 781 Bytes (0%)
Language : German
Default : No
Forced : No
Menu
00:00:00.000 : en:00:00:00.000
00:03:27.999 : en:00:03:27.999
00:11:32.025 : en:00:11:32.025
00:20:23.013 : en:00:20:23.013
00:29:27.933 : en:00:29:27.933
00:38:56.960 : en:00:38:56.960
00:44:51.981 : en:00:44:51.981
00:53:11.939 : en:00:53:11.939
00:59:53.965 : en:00:59:53.965
01:09:16.903 : en:01:09:16.903
01:20:12.933 : en:01:20:12.933
01:31:19.933 : en:01:31:19.933

Скриншоты

Other forum [Profile] [PM]
Similar theme
Forum Topic Author Torrent Replies Last Post
./templates/default/images/folder_dl.gif Компьютерная литература Подшивка журналов - Системный администратор [2002-2012] [PDF]Обновлено 17.11.2012 Omen
0 | 1

0 | 1693

2

2012-06-09 22:27
Omen Latest
Display posts from previous:    
Reply to topic

The time now is: Today 13:57

All times are GMT + 3 Hours



You cannot post new topics in this forum
You cannot reply to topics in this forum
You cannot edit your posts in this forum
You cannot delete your posts in this forum
You cannot vote in polls in this forum
You cannot attach files in this forum
You cannot download files in this forum