Today is a free download without charge Download

Эквилибриум / Equilibrium (Курт Уиммер / Kurt Wimmer) [2002 г., фантастика, боевик, драма, BDRip] [H.264/720p-LQ]

Reply to topic
 
Author
Message

Omen ®

Longevity: 8 years 5 months

Posts: 181087

Торрент-статистика

Post 24-Jul-2012 21:45

[Quote]

Эквилибриум
Equilibrium
- Русское название: Эквилибриум
Оригинальное название: Equilibrium
Год выпуска: 2002
Жанр: Фантастика, Боевик, Драма-Описание фильма:
Действие происходит в будущем, когда люди лишены возможности выражать какие-то эмоции, потому, что они… запрещены. Это — та цена, которую человечество платит за устранение из своей жизни войн. Теперь книги, искусство и музыка находятся вне закона. А любое чувство — уже преступление, наказуемое смертью.
"Эквилибриум" представляет собой редкое сочетание шикарного, мощного боевика и глубокой драмы, в нем есть и экшн, и поэзия, и притяжение, и захватывающие дух схватки, и боль, и жестокий триумф. Некоторые сцены фильма по-настоящему перехватывают дыхание. Режиссер Уиммер не только сам написал сценарий, но и разработал ган-кату, которая своим смертоносным изяществом покорила зрителей. Кристиан Бэйл играет настолько ярко, что описать это трудно, — на непроницаемом лице машины для убийства вдруг появляется сомнение, он ищет — и пока не знает, что хочет найти. Мы можем наблюдать рождение человека заново, переоткрытие мира. Престон слепо отбрасывает слова мертвого напарника, но они проникают в разум, сбросивший оковы наркотика, раздражают, волнуют. "Ступай мягче — ведь ты идешь по моим мечтам" Одна фраза раскачивает сознание, уверенность исчезает, все вокруг становится странно зыбким. Момент, когда Престон нервно вздрагивает от визга умирающих собак, или разрывает пленку, чтобы увидеть дождь, просто превосходны. Постепенно, медленно, а затем лавинообразно восприятие реальности изменяется, но рядом кружит подозрительный Брандт, готовый поймать свернувшего с истинного пути парнера в силки...-Режиссер: Курт Уиммер.
Актеры: Кристиан Бэйл, Шон Бин, Эмили Уотсон, Тэй Диггз, Энгус МакФадьен, Шон Пертуи, Уильям Фихтнер, Джон Кеог, Дэвид Барраш, Дирк Мартенс и др.-Продолжительность: 01:47:02
Перевод: Дублированный, многоголосый закадровый, авторский закадровый
Язык: русский / английский
Язык субтитров: русский / английский
Вид субтитров: вшитые, отключаемые- -Видеокодек: MPEG4 AVC / H.264
Битрейт видео: ~23.976 fps, variable ~ 2421 kbps
Размер кадра: 1280x544 (2.35:1)
Качество видео: BDRip
Аудио 1: AC3, 48.0 KHz, 6 ch., 448 kbps - русский дублированный
Аудио 2: AC3, 48.0 KHz, 6 ch., 448 kbps - русский многоголосый закадровый (отдельным файлом)
Аудио 3: AAC, 48.0 KHz, 6 ch., 290 kbps - авторский одноголосый, переводчик Живов (отдельным файлом)
Аудио 4: AAC, 48.0 KHz, 6 ch., 400 kbps - оригинальный английский (отдельным файлом)
-

Mediainfo

Код:
Complete name                    : /home/prot/Видео/Equilibrium_BD_rip720p-LQ/Equilibrium_720p.mkv
Format                           : Matroska
File size                        : 2.15 GiB
Duration                         : 1h 47mn
Overall bit rate                 : 2 873 Kbps
Encoded date                     : UTC 2011-03-25 08:39:03
Writing application              : mkvmerge v3.0.0 ('Hang up your Hang-Ups') built on Dec 29 2009 00:24:14
Writing library                  : libebml v0.7.7 + libmatroska v0.8.1
Video
ID                               : 1
Format                           : AVC
Format/Info                      : Advanced Video Codec
Format profile                   : [url=mailto:[email protected]][email protected][/url]
Format settings, CABAC           : Yes
Format settings, ReFrames        : 8 frames
Codec ID                         : V_MPEG4/ISO/AVC
Duration                         : 1h 47mn
Bit rate mode                    : Variable
Bit rate                         : 2 421 Kbps
Maximum bit rate                 : 40.0 Mbps
Width                            : 1 280 pixels
Height                           : 544 pixels
Display aspect ratio             : 2.35:1
Frame rate                       : 23.976 fps
Color space                      : YUV
Chroma subsampling               : 4:2:0
Bit depth                        : 8 bits
Scan type                        : Progressive
Bits/(Pixel*Frame)               : 0.145
Stream size                      : 1.77 GiB (82%)
Title                            : Video
Writing library                  : x264 core 114 r1913 5fd3dce
Encoding settings                : cabac=1 / ref=8 / deblock=1:1:-3 / analyse=0x3:0x113 / me=umh / subme=10 / psy=1 / psy_rd=1.01:0.01 / mixed_ref=1 / me_range=32 / chroma_me=1 / trellis=2 / 8x8dct=1 / cqm=0 / deadzone=21,11 / fast_pskip=0 / chroma_qp_offset=-3 / threads=6 / sliced_threads=0 / nr=0 / decimate=0 / interlaced=0 / constrained_intra=0 / bframes=5 / b_pyramid=2 / b_adapt=2 / b_bias=0 / direct=2 / weightb=1 / open_gop=0 / weightp=2 / keyint=250 / keyint_min=23 / scenecut=40 / intra_refresh=0 / rc_lookahead=50 / rc=2pass / mbtree=1 / bitrate=2421 / ratetol=1.5 / qcomp=0.60 / qpmin=10 / qpmax=51 / qpstep=4 / cplxblur=20.0 / qblur=0.5 / vbv_maxrate=40000 / vbv_bufsize=30000 / nal_hrd=none / ip_ratio=1.40 / aq=2:0.9
Language                         : English
Audio
ID                               : 2
Format                           : AC-3
Format/Info                      : Audio Coding 3
Mode extension                   : CM (complete main)
Codec ID                         : A_AC3
Duration                         : 1h 47mn
Bit rate mode                    : Constant
Bit rate                         : 448 Kbps
Channel(s)                       : 6 channels
Channel positions                : Front: L C R, Side: L R, LFE
Sampling rate                    : 48.0 KHz
Bit depth                        : 16 bits
Compression mode                 : Lossy
Stream size                      : 343 MiB (16%)
Title                            : Dubl
Language                         : Russian
Text #1
ID                               : 3
Format                           : UTF-8
Codec ID                         : S_TEXT/UTF8
Codec ID/Info                    : UTF-8 Plain Text
Language                         : Russian
Text #2
ID                               : 4
Format                           : UTF-8
Codec ID                         : S_TEXT/UTF8
Codec ID/Info                    : UTF-8 Plain Text
Language                         : English
-Скриншоты:
     
-

Еще скриншоты:

         
Other forum [Profile] [PM]
Display posts from previous:    
Reply to topic

The time now is: Today 11:18

All times are GMT + 3 Hours



You cannot post new topics in this forum
You cannot reply to topics in this forum
You cannot edit your posts in this forum
You cannot delete your posts in this forum
You cannot vote in polls in this forum
You cannot attach files in this forum
You cannot download files in this forum