Today is a free download without charge Download

С глаз - долой, из чарта - вон! / Music and Lyrics (2007) DVDRip

Reply to topic
 
Author
Message

Delia ®

Gender:

Longevity: 9 years 1 month

Posts: 1821

Торрент-статистика

Post 27-Feb-2011 16:36

[Quote]

С глаз - долой, из чарта - вон! / Music and Lyrics (2007) DVDRip- Год выпуска: 2007
Страна: США
Жанр: Комедия, Мелодрама, Романтика, Музыка
Слоган: «Share the music with someone you love.»
Кинокомпания: Castle Rock Entertainment, Village Roadshow Pictures, Reserve Room, Flower Films (II)
b]Дата мировой премьеры: 9 февраля 2007
Дата российской премьеры: 12 апреля 2007, «Каро-Премьер»
Продолжительность: 01:44:06
Перевод: Дублированный
Язык: русский
Режиссер: Марк Лоуренс
Продюсер: Лиз Глоцер, Мартин Шэфер, Брюс Берман
Сценарий: Марк Лоуренс
Художник: Джейн Маски, Патриция Вудбридж, Сьюзэн Лайолл
Композитор: Адам Шлезингер
Актеры: Хью Грант, Дрю Бэрримор, Жаклинн Тиффани Браун, Брэд Гарретт, Джейми Греко, Билли Гриффит, Эллен Харви, Кристен Джонстон, Кэмпбелл Скотт, Лу Торрес
Описание фильма:
Алекс Флетчер, поп-звезда 80-х, чей поезд ушел, получает возможность вернуться на сцену, когда новоиспеченная звезда предлагает ему записать вместе песню... но есть одна проблема. Дело в том, что за всю жизнь Алекс сам не написал ни строчки, а у Софии, его экстравагантной партнерши, редкий талант к стихосложению. Пока огонек любви разгорается между ними под аккорды пианино Алекса, им предстоит взглянуть в глаза своим страхам — и самой музыке — чтобы добиться заслуженного успеха.
Особенностью фильма является большое количество песен в исполнении актёров и имитация музыкальных стилей поп-музыки 80-х и 2000-х годов

рейтинг MPAA:
Дата мировой премьеры: 9 февраля 2007
Дата российской премьеры: 12 апреля 2007, «Каро-Премьер»
Видеокодек: Xvid
Битрейт видео: ~1762 кб/сек , 23.976 fps
Размер кадра: 720х416
Качество видео: DVDRip
Аудиокодек: AC3 5.1
Битрейт аудио: CBR 448 кб/сек (6 ch)

Mediainfo

Общее
Полное имя : L:\Фильмы\Upload\Music and Lyrics.DVDRip.avi
Формат : AVI
Формат/Информация : Audio Video Interleave
Размер файла : 1,61 Гбайт
Продолжительность : 1 ч. 44 м.
Общий поток : 2217 Кбит/сек
Программа кодирования : VirtualDubMod 1.5.4.1 (build 2178/release)
Библиотека кодирования : VirtualDubMod build 2178/release
Видео
Идентификатор : 0
Формат : MPEG-4 Visual
Профиль формата : Advanced [email protected]
Параметр BVOP формата : 1
Параметр QPel формата : Нет
Параметр GMC формата : Без точки перехода
Параметр матрицы формата : Выборочная
Идентификатор кодека : XVID
Идентификатор кодека/Подсказка : XviD
Продолжительность : 1 ч. 44 м.
Битрейт : 1762 Кбит/сек
Ширина : 720 пикс.
Высота : 416 пикс.
Соотношение сторон : 16:9
Частота кадров : 23,976 кадр/сек
Цветовое пространство : YUV
Подвыборка цветности : 4:2:0
Битовая глубина : 8 бит
Тип развёртки : Прогрессивная
Метод сжатия : С потерями
Бит/(Пиксели*Кадры) : 0.245
Размер потока : 1,28 Гбайт (79%)
Библиотека кодирования : XviD 1.1.2 (UTC 2006-11-01)
Аудио
Идентификатор : 1
Формат : AC-3
Формат/Информация : Audio Coding 3
Расширение режима : CM (complete main)
Идентификатор кодека : 2000
Продолжительность : 1 ч. 44 м.
Вид битрейта : Постоянный
Битрейт : 448 Кбит/сек
Канал(ы) : 6 канала(ов)
Расположение каналов : Front: L C R, Side: L R, LFE
Частота : 48,0 КГц
Битовая глубина : 16 бит
Метод сжатия : С потерями
Размер потока : 334 Мбайт (20%)
Выравнивание : Разделение по промежуткам
Продолжительность промежутка : 96 мс. (2,30 видеокадров)
Время предзагрузки промежутка : 96 ms
Язык : English

Скриншоты:

    

_________________
Человек – это канат, натянутый между животным и сверхчеловеком, – канат над пропастью.
В человеке ценно то, что он мост, а не цель. Фридрих Ницше


Last edited by Delia on 2011-02-27 22:05; edited 3 times in total
Other forum [Profile] [PM]
Display posts from previous:    
Reply to topic

The time now is: Today 18:02

All times are GMT + 3 Hours



You cannot post new topics in this forum
You cannot reply to topics in this forum
You cannot edit your posts in this forum
You cannot delete your posts in this forum
You cannot vote in polls in this forum
You cannot attach files in this forum
You cannot download files in this forum