Today is a free download without charge Download

Девушка без адреса (Эльдар Рязанов) [1957, СССР, Лирическая комедия, HDTV 1080i]

Reply to topic
 
Author
Message

Omen ®

Longevity: 8 years 10 months

Posts: 181086

Торрент-статистика

Post 26-Feb-2016 06:00

[Quote]

Девушка без адреса- Страна: СССР
Жанр: Лирическая комедия
Год выпуска: 1957
Продолжительность: 01:24:52-Перевод: Не требуется
Субтитры: Нет
Оригинальная аудиодорожка: Русская-Режиссер: Эльдар Рязанов
В ролях: Светлана Карпинская, Николай Рыбников, Эраст Гарин, Василий Топорков, Юрий Белов, Светлана Тарасова, Зоя Фёдорова, Сергей Филиппов.- -Описание: Забавные приключения молодого строителя Пашки Гусарова начались с того момента, как в поезде он встретил и полюбил Катю. Счастье делает человека беспечным, и на вокзале его ждет множество необычных событий. Однако именно здесь влюбленные встречаются вновь, и больше уже не расстаются.-Дополнительная информация: В нескольких местах присутствует небольшое рассыпание картинки.-Семпл-Тип релиза: HDTV 1080i
Контейнер: TS
Видео: AVC | 1920x1080 [16:9] | 25 fps | 10.7 Mbps
Аудио: Русский | MP2 | 2 ch | 48.0 KHz | 192 kbps

MediaInfo

GeneralID : 1 (0x1)Complete name : F:\Video\Девушка без адреса [Эльдар Рязанов] [1957] [HDTV 1080i].tsFormat : MPEG-TSFile size : 6.78 GiBDuration : 1h 24mnOverall bit rate mode : VariableOverall bit rate : 11.4 Mbps
VideoID : 67 (0x43)Menu ID : 1 (0x1)Format : AVCFormat/Info : Advanced Video CodecFormat profile : [email protected] settings, CABAC : YesFormat settings, ReFrames : 3 framesFormat settings, GOP : M=4, N=28Codec ID : 27Duration : 1h 24mnBit rate : 10.7 MbpsWidth : 1 920 pixelsHeight : 1 080 pixelsDisplay aspect ratio : 16:9Frame rate : 25.000 fpsStandard : ComponentColor space : YUVChroma subsampling : 4:2:0Bit depth : 8 bitsScan type : InterlacedScan order : Top Field FirstBits/(Pixel*Frame) : 0.206Stream size : 6.33 GiB (93%)Color range : LimitedColor primaries : BT.709Transfer characteristics : BT.709Matrix coefficients : BT.709
AudioID : 68 (0x44)Menu ID : 1 (0x1)Format : MPEG AudioFormat version : Version 1Format profile : Layer 2Codec ID : 3Duration : 1h 24mnBit rate mode : ConstantBit rate : 192 KbpsChannel(s) : 2 channelsSampling rate : 48.0 KHzCompression mode : LossyDelay relative to video : -80msStream size : 117 MiB (2%)Language : Russian

Скриншоты

Other forum [Profile] [PM]
Similar theme
Forum Topic Author Torrent Replies Last Post
./templates/default/images/folder_sticky.gif Ролики, сайт рипы Русские Пикаперы Снимают Девушек (51-ролик)[MyPickupGirls.com][2007-2009 г., Teens, PickUp, Public, Oral, Classic, Anal Sex., SiteRip] Fanatik
1 | 0

0 | 4291

54

2016-03-09 20:30
Fanatik Latest
Display posts from previous:    
Reply to topic

The time now is: Today 12:56

All times are GMT + 3 Hours



You cannot post new topics in this forum
You cannot reply to topics in this forum
You cannot edit your posts in this forum
You cannot delete your posts in this forum
You cannot vote in polls in this forum
You cannot attach files in this forum
You cannot download files in this forum