Today is a free download without charge Download

Бармен (Дина Штурманова) [2015, Россия, комедия, фэнтези, HDTV 1080i]

Reply to topic
 
Author
Message

Omen ®

Longevity: 8 years 10 months

Posts: 181086

Торрент-статистика

Post 26-Feb-2016 00:00

[Quote]

Бармен
Страна: Россия
Студия: Вайт Медиа, Арт Пикчерз Студия, Фонд Кино
Жанр: комедия, фэнтези
Год выпуска: 2015
Продолжительность: 01:25:12
Оригинальная аудиодорожка: русский
Cубтитры: Нет
Режиссер: Дина Штурманова
В ролях:
Виталий Гогунский
Иван Охлобыстин
Юлия Паршута
Юрий Стоянов
Жанна Эппле
Константин Крюков
Антон Богданов
Ольга Бузова
Евгения Ярушникова
Константин Федоров
Описание: Вадик мечтает изменить свою скучную жизнь, но страх неудачи и неуверенность в себе мешают парню двигаться к цели. Все меняется, когда Вадик случайно забредает в пустой бар и выпивает коктейль по рецепту загадочного Бармена. Отныне он — мистер Харизма, и весь мир лежит у его ног. Даже красавица Юля, о которой раньше он не смел и мечтать, обратила на него внимание. Новый коктейль — новый талант: сегодня Вадик — интеллектуал, завтра — король танцпола… Вот только действуют волшебные напитки недолго и имеют не очень приятный побочный эффект…
Доп. информация: Запись со спутника Eutelsat 36A/B, телеканал "Наше HD".
Сэмпл: http://multi-up.com/1090669
Тип релиза: HDTV 1080i
Контейнер: MKV
Видео: AVC, 1920x1080i, 25.000 fps, 5948 kbps
Аудио: Русский (Dolby AC3 5.1, 48 kHz, 448 kbps)

MediaInfo

Общее
Уникальный идентификатор : 251471513471398143479239561061145319830 (0xBD2FA6DC11CC1134B1C3C33105111996)
Полное имя : E:\Бармен_2015_HDTV_1080i.mkv
Формат : Matroska
Версия формата : Version 2
Размер файла : 3,88 Гбайт
Продолжительность : 1 ч. 25 м.
Общий поток : 6525 Кбит/сек
Дата кодирования : UTC 2016-02-24 18:50:27
Программа кодирования : mkvmerge v5.6.0 ('Kenya Kane') built on May 27 2012 16:44:04
Библиотека кодирования : libebml v1.2.3 + libmatroska v1.3.0
Видео
Идентификатор : 1
Формат : AVC
Формат/Информация : Advanced Video Codec
Профиль формата : [email protected]
Параметр CABAC формата : Да
Параметр ReFrames формата : 3 кадра
Параметр GOP формата : M=4, N=32
Идентификатор кодека : V_MPEG4/ISO/AVC
Продолжительность : 1 ч. 25 м.
Битрейт : 5948 Кбит/сек
Ширина : 1920 пикселей
Высота : 1080 пикселей
Соотношение сторон : 16:9
Режим частоты кадров : Постоянный
Частота кадров : 25,000 кадров/сек
Стандарт вещания : Component
Цветовое пространство : YUV
Субдискретизация насыщенности : 4:2:0
Битовая глубина : 8 бит
Тип развёртки : Чересстрочная
Метод сохранения типа развёртки : Раздельные поля
Порядок развёртки : Верхнее поле первое
Бит/(Пиксели*Кадры) : 0.115
Размер потока : 3,54 Гбайт (91%)
Default : Да
Forced : Нет
Цветовой диапазон : Limited
Основные цвета : BT.709
Характеристики трансфера : BT.709
Коэффициенты матрицы : BT.709
Аудио
Идентификатор : 2
Формат : AC-3
Формат/Информация : Audio Coding 3
Расширение режима : CM (complete main)
Параметр Endianness формата : Big
Идентификатор кодека : A_AC3
Продолжительность : 1 ч. 25 м.
Вид битрейта : Постоянный
Битрейт : 448 Кбит/сек
Каналы : 6 каналов
Расположение каналов : Front: L C R, Side: L R, LFE
Частота : 48,0 КГц
Частота кадров : 31,250 кадров/сек (1536 spf)
Метод сжатия : С потерями
Задержка видео : 53 мс.
Размер потока : 273 Мбайт (7%)
Язык : Russian
Default : Да
Forced : Нет

Скриншоты

Other forum [Profile] [PM]
Display posts from previous:    
Reply to topic

The time now is: Today 19:13

All times are GMT + 3 Hours



You cannot post new topics in this forum
You cannot reply to topics in this forum
You cannot edit your posts in this forum
You cannot delete your posts in this forum
You cannot vote in polls in this forum
You cannot attach files in this forum
You cannot download files in this forum