Today is a free download without charge Download

Снайпер: Последний выстрел (Арман Геворгян) [2015, Россия, Белоруссия, военный, приключения, драма, HDTV 1080i]

Reply to topic
 
Author
Message

Omen ®

Longevity: 8 years 10 months

Posts: 181086

Торрент-статистика

Post 23-Feb-2016 15:01

[Quote]

Снайпер: Последний выстрел
Страна: Россия, Белоруссия
Студия: Нью Арт Синема Продакшн, Маурис Филм
Жанр: военный, приключения, драма
Год выпуска: 2015
Продолжительность: 01:20:42
Оригинальная аудиодорожка: русский
Cубтитры: Нет
Режиссер: Арман Геворгян
В ролях:
Гоша Куценко
Анна Снаткина
Владимир Гостюхин
Денис Бургазлиев
Дирк Мартенс
Борис Романов
Юлия Кадушкевич
Георгий Сивохин
Руслан Чернецкий
Олег Вебер
Описание: Лето 1941-го. Наступление вермахта развивается по всем фронтам. Красная Армия на грани катастрофы. В эпицентре событий – судьбы русского Николая Волохова и француза Андре Ренье. Непримиримых врагов война превращает в соратников и друзей. Снайпер Красной армии Волохов и французский офицер Андре Ренье могли сражаться по разные стороны линии фронта. Но оказались в одном строю, когда летом сорок первого красноармейцы из разбитого отряда полковника Зотова захватили у немцев эшелон с польскими военнопленными. Жертвы кампании 1939 года, среди которых оказался и советник польской армии капитан Ренье, были обречены: солдаты умирали от голода и жажды. Андре Ренье – сын белого офицера. Волохов – донской казак. Его семья погибла в годы гражданской смуты от рук белогвардейцев. Они забывают о прошлом, чтобы до последней капли крови защищать затерянную в лесах станцию. Это последний бой обреченных, у которых нет права на отступление. Лучше умереть с оружием в руках, чем оказаться в плену у врага.
Доп. информация: Запись со спутника Eutelsat 36A/B, телеканал "Наше HD".
Сэмпл: http://multi-up.com/1090294
Тип релиза: HDTV 1080i
Контейнер: MKV
Видео: AVC, 1920x1080i, 25.000 fps, 5178 kbps
Аудио: Русский (Dolby AC3 5.1, 48 kHz, 448 kbps)

MediaInfo

Общее
Уникальный идентификатор : 222128478592273041098130760169524547786 (0xA71C638B29A48236936A19A9DC2FD0CA)
Полное имя : E:\Снайпер Последний выстрел_2015_HDTV_1080i.mkv
Формат : Matroska
Версия формата : Version 2
Размер файла : 3,24 Гбайт
Продолжительность : 1 ч. 20 м.
Общий поток : 5740 Кбит/сек
Дата кодирования : UTC 2016-02-23 09:16:01
Программа кодирования : mkvmerge v5.6.0 ('Kenya Kane') built on May 27 2012 16:44:04
Библиотека кодирования : libebml v1.2.3 + libmatroska v1.3.0
Видео
Идентификатор : 1
Формат : AVC
Формат/Информация : Advanced Video Codec
Профиль формата : [email protected]
Параметр CABAC формата : Да
Параметр ReFrames формата : 3 кадра
Параметр GOP формата : M=4, N=32
Идентификатор кодека : V_MPEG4/ISO/AVC
Продолжительность : 1 ч. 20 м.
Битрейт : 5178 Кбит/сек
Ширина : 1920 пикселей
Высота : 1080 пикселей
Соотношение сторон : 16:9
Режим частоты кадров : Постоянный
Частота кадров : 25,000 кадров/сек
Стандарт вещания : Component
Цветовое пространство : YUV
Субдискретизация насыщенности : 4:2:0
Битовая глубина : 8 бит
Тип развёртки : Чересстрочная
Метод сохранения типа развёртки : Раздельные поля
Порядок развёртки : Верхнее поле первое
Бит/(Пиксели*Кадры) : 0.100
Размер потока : 2,92 Гбайт (90%)
Default : Да
Forced : Нет
Цветовой диапазон : Limited
Основные цвета : BT.709
Характеристики трансфера : BT.709
Коэффициенты матрицы : BT.709
Аудио
Идентификатор : 2
Формат : AC-3
Формат/Информация : Audio Coding 3
Расширение режима : CM (complete main)
Параметр Endianness формата : Big
Идентификатор кодека : A_AC3
Продолжительность : 1 ч. 20 м.
Вид битрейта : Постоянный
Битрейт : 448 Кбит/сек
Каналы : 6 каналов
Расположение каналов : Front: L C R, Side: L R, LFE
Частота : 48,0 КГц
Частота кадров : 31,250 кадров/сек (1536 spf)
Метод сжатия : С потерями
Задержка видео : 21 мс.
Размер потока : 259 Мбайт (8%)
Язык : Russian
Default : Да
Forced : Нет

Скриншоты

Other forum [Profile] [PM]

Dracula

Longevity: 7 years 11 months

Posts: 11007

Торрент-статистика

Post 23-Feb-2016 16:13 (after 1 hour 12 minutes)

Топик был перенесен из форума Зарубежное кино в форум Наше кино


Геннадич
 
Display posts from previous:    
Reply to topic

The time now is: Today 18:36

All times are GMT + 3 Hours



You cannot post new topics in this forum
You cannot reply to topics in this forum
You cannot edit your posts in this forum
You cannot delete your posts in this forum
You cannot vote in polls in this forum
You cannot attach files in this forum
You cannot download files in this forum