Today is a free download without charge Download

Статус: Свободен (Павел Руминов) [2015, Россия, комедия, мелодрама, WEB-DL 1080p] + Original Rus

Reply to topic
 
Author
Message

Omen ®

Longevity: 8 years 10 months

Posts: 181086

Торрент-статистика

Post 19-Feb-2016 09:33

[Quote]

Статус: Свободен
Страна: Россия
Жанр: комедия, мелодрама
Год выпуска: 2015
Продолжительность: 01:38:48-Перевод: Не требуется
Cубтитры: нет
Оригинальная аудиодорожка: русский-Режиссер: Павел Руминов-В ролях: Данила Козловский, Елизавета Боярская, Владимир Селезнев, Игорь Войнаровский, Наталья Анисимова, Паулина Андреева, Надежда Звенигородская, Милош Руминов, Михаил Крылов, Катрин Асси
Описание: Никита и Афина - идеальная пара... Как палочки Твикс. Как Бред Питт и Анджелина Джоли. Но... только по мнению Никиты. Внезапно Афина сообщает, что уходит от него. Причем - к 40-летнему стоматологу. Никита не согласен с таким поворотом судьбы и обещает Афине, что вернет ее за неделю. Что готов сделать отчаянный стэндапер, чтобы вернуть свою любовь?-Релиз от:
-Тип релиза: WEB-DL 1080p
Контейнер: MKV-Видео: MPEG4 Video (H264) 1920x804p, ~ 4307 kbps, 24 fps, 0.116 Bits/(Pixel*Frame)-Аудио: 48 kHz, AC3, 3/2 (L,C,R,l,r) + LFE ch, ~384.00 kbps avg iTunes

MediaInfo

General
Уникальный идентификатор : 200496544394357897178678797115015165738 (0x96D63AD812EA45C2A7CBDC633A31F72A)
Полное имя : E:\STATUS_SVOBODEN_WEB_DL_1080p.mkv
Формат : Matroska
Версия формата : Version 4 / Version 2
Размер файла : 3.30 GiB
Продолжительность : 1h 38mn
Общий поток : 4 786 Kbps
Название фильма : STATUS_SVOBODEN_WEB_DL_1080p-BLUEBIRD
Дата кодирования : UTC 2016-02-18 19:49:44
Программа кодирования : mkvmerge v7.1.0 ('Good Love') 64bit built on Jul 27 2014 13:06:55
Библиотека кодирования : libebml v1.3.0 + libmatroska v1.4.1
DURATION : 01:38:48.160000000
NUMBER_OF_FRAMES : 185255
NUMBER_OF_BYTES : 284551680
_STATISTICS_WRITING_APP : mkvmerge v7.1.0 ('Good Love') 64bit built on Jul 27 2014 13:06:55
_STATISTICS_WRITING_DATE_UTC : 2016-02-18 19:49:44
_STATISTICS_TAGS : BPS DURATION NUMBER_OF_FRAMES NUMBER_OF_BYTES
Video
Идентификатор : 1
Формат : AVC
Формат/Информация : Advanced Video Codec
Профиль формата : [email protected]
Параметр CABAC формата : Yes
Параметр ReFrames формата : 5 frames
Идентификатор кодека : V_MPEG4/ISO/AVC
Продолжительность : 1h 38mn
Битрейт : 4 307 Kbps
Ширина : 1 920 pixels
Высота : 804 pixels
Соотношение сторон : 2.40:1
Режим частоты кадров : Constant
Частота кадров : 24.000 fps
Цветовое пространство : YUV
Субдискретизация насыщенности : 4:2:0
Битовая глубина : 8 bits
Тип развёртки : Progressive
Бит/(Пиксели*Кадры) : 0.116
Размер потока : 2.97 GiB (90%)
Заголовок : STATUS_SVOBODEN_WEB_DL_1080p-BLUEBIRD
Язык : Russian
Default : Yes
Forced : No
Основные цвета : BT.709
Характеристики трансфера : BT.709
Коэффициенты матрицы : BT.709
colour_range : Limited
Audio
Идентификатор : 2
Формат : AC-3
Формат/Информация : Audio Coding 3
Расширение режима : CM (complete main)
Параметр Endianness формата : Big
Идентификатор кодека : A_AC3
Продолжительность : 1h 38mn
Вид битрейта : Constant
Битрейт : 384 Kbps
Каналы : 6 channels
Расположение каналов : Front: L C R, Side: L R, LFE
Частота : 48.0 KHz
Битовая глубина : 16 bits
Метод сжатия : Lossy
Размер потока : 271 MiB (8%)
Заголовок : [ORIGINAL] DD 5.1 @ 384 kbps -iTunes
Язык : Russian
Default : Yes
Forced : No
Menu
00:00:00.000 : en:Глава 1
00:07:17.458 : en:Глава 2
00:12:47.666 : en:Глава 3
00:19:18.749 : en:Глава 4
00:25:54.999 : en:Глава 5
00:30:58.832 : en:Глава 6
00:37:33.373 : en:Глава 7
00:42:50.914 : en:Глава 8
00:48:59.664 : en:Глава 9
00:54:10.747 : en:Глава 10
01:00:01.663 : en:Глава 11
01:05:25.413 : en:Глава 12
01:10:46.371 : en:Глава 13
01:16:50.912 : en:Глава 14
01:23:10.828 : en:Глава 15
01:28:25.911 : en:Глава 16

Скриншоты

Other forum [Profile] [PM]

Dracula

Longevity: 7 years 11 months

Posts: 11000

Торрент-статистика

Post 24-Feb-2016 19:06 (after 5 days)

Топик был перенесен из форума Зарубежное кино в форум Наше кино


Геннадич
 
Display posts from previous:    
Reply to topic

The time now is: Today 23:19

All times are GMT + 3 Hours



You cannot post new topics in this forum
You cannot reply to topics in this forum
You cannot edit your posts in this forum
You cannot delete your posts in this forum
You cannot vote in polls in this forum
You cannot attach files in this forum
You cannot download files in this forum