Today is a free download without charge Download

Прощание (Дмитрий Константинов) [2013, Россия, мелодрама, HDTV 1080i] + Original Rus

Reply to topic
 
Author
Message

Omen ®

Longevity: 8 years 10 months

Posts: 181086

Торрент-статистика

Post 17-Feb-2016 15:03

[Quote]

Прощание
Страна: Россия
Студия: Марс Медиа Энтертейнмент
Жанр: мелодрама
Год выпуска: 2013
Продолжительность: 01:32:33
Перевод: Не требуется
Cубтитры: нет
Оригинальная аудиодорожка: русский
Режиссер: Дмитрий Константинов
В ролях: Алёна Бабенко, Сергей Юшкевич, Владимир Виноградов, Олег Мазуров, Николай Губенков, Арсений Лейн, Вячеслав Чепурченко, Евгений Антропов, Анна Башенкова, Ольга Сухарева
Описание: Популярная российская актриса Анна Рябинина более десяти лет строит карьеру и живет в Америке. Внезапно она принимает решение вернуться. О причинах и последствиях этого решения Анна задумается уже в Москве. Дома она проведет всего несколько дней, которые станут самыми безумными и важными в ее жизни.

Sample
Тип релиза: HDTV 1080i
Контейнер: TS
Видео: MPEG4 AVC Video, H264, 16:9, 1920x1080, 25 fps, 7864 kbps
Аудио: Russian (MP2, 2 ch, 192 kbps, 16 bits, 48.0 KHz) - оригинал

MediaInfo

General
ID : 1 (0x1)
Complete name : E:\Прощание 2013 HDTV 1080i.ts
Format : MPEG-TS
File size : 5.48 GiB
Duration : 1h 32mn
Overall bit rate mode : Variable
Overall bit rate : 8 477 Kbps
Video
ID : 2931 (0xB73)
Menu ID : 1115 (0x45B)
Format : AVC
Format/Info : Advanced Video Codec
Format profile : [email protected]
Format settings, CABAC : Yes
Format settings, ReFrames : 4 frames
Codec ID : 27
Duration : 1h 32mn
Bit rate : 7 864 Kbps
Width : 1 920 pixels
Height : 1 080 pixels
Display aspect ratio : 16:9
Frame rate : 25.000 fps
Color space : YUV
Chroma subsampling : 4:2:0
Bit depth : 8 bits
Scan type : MBAFF
Bits/(Pixel*Frame) : 0.152
Stream size : 5.08 GiB (93%)
Audio
ID : 2932 (0xB74)
Menu ID : 1115 (0x45B)
Format : MPEG Audio
Format version : Version 1
Format profile : Layer 2
Codec ID : 3
Duration : 1h 32mn
Bit rate mode : Constant
Bit rate : 192 Kbps
Channel count : 2 channels
Sampling rate : 48.0 KHz
Compression mode : Lossy
Stream size : 127 MiB (2%)
Language : Russian

Скриншоты

Other forum [Profile] [PM]
Similar theme
Forum Topic Author Torrent Replies Last Post
./templates/default/images/folder_dl.gif Rock Эхо тишины - Прощание (2006) [MP3|320 кб/с] UndegraundMen
0 | 1

2 | 1709

0

2019-10-14 07:15
Clavik Latest
Display posts from previous:    
Reply to topic

The time now is: Today 14:37

All times are GMT + 3 Hours



You cannot post new topics in this forum
You cannot reply to topics in this forum
You cannot edit your posts in this forum
You cannot delete your posts in this forum
You cannot vote in polls in this forum
You cannot attach files in this forum
You cannot download files in this forum