Today is a free download without charge Download

Спаун / Отродье / Spawn (Марк Э. З. Диппе / Mark A.Z. Dippe) [1997, США, фэнтези, боевик, триллер, BDRip 720p][Режиссёрская версия / Director's cut] DVO "Союз-Видео" + AVO Ю. Живов Sub Rus + Original En

Reply to topic
 
Author
Message

Delia ®

Gender:

Longevity: 10 years

Posts: 1821

Торрент-статистика

Post 22-Jul-2012 11:56

[Quote]

Спаун / Spawn«Born in darkness. Sworn to justice.»--
Год выпуска: 1997
Страна: США
Жанр: фэнтези, боевик, триллер, ...
Продолжительность: 01:38:33
Перевод: Профессиональный (двухголосый закадровый)
Субтитры: Russian , english (srt)
Режиссер: Марк А.З. Диппе
Сценарий: Алан Б. МакЭлрой, Марк А.З. Диппе, Тодд МакФарлэйн
Продюсер: Алан С. Бломквист, Адрианна А.Дж. Коэн, Терри Фицджералд, ...
Оператор: Гильермо Наварро
Композитор: Клифф Бертон, Кен Джордан, Скотт Керклэнд, ...
Художник: Филип Харрисон, Эрик Орбом, Дэниэл Дж. Лестер, ...
Монтаж: Тодд Буш, Майкл Н. Нью- В ролях: Майкл Джей Уайт (Michael Jai White), Джон Легуизамо (John Leguizamo), Мартин Шин (Martin Sheen), Тереза Рэндл (Theresa Randle), Никол Уильямсон (Nicol Williamson), Д.Б. Суини (D.B. Sweeney), Мелинда Кларк (Melinda Clarke), Мико Хьюз (Miko Hughes), Сидни Бодуан (Sydni Beaudoin), Майкл Пападжон (Michael Papajohn), Фрэнк Уэлкер (Frank Welker), Робия Ламорт (Robia LaMorte), Джон Котрэн мл. (John Cothran Jr.), Кэролайн Гибсон (Caroline Gibson), Тони Хейни (Tony Haney), Марк Робинсон (Marc Robinson), Дэррил Уоррен (Darryl Warren), Крис Коппола (Chris Coppola), Майк Акрави (Mike Akrawi), Джей Капуто (Jay Caputo)
Описание: «Краповый берет» Эл Симмонс убит своим начальником во время выполнения очередной миссии. Попав в чистилище, он заключает сделку с Дьяволом. Сатана дает ему силу, доспехи и оружие.В обмен на то, чтобы еще раз увидеть свою жену, Симмонс должен предварить приход сил Зла на Землю. Оказавшись на свободе, он разрывает контракт в одностороннем порядке&3;-Рейтинг MPAA: -- --Разница между театральной и режиссёрской версиями
Качество: BDRip
Формат: MKV
Видео кодек: H.264 (AVC)
Аудио кодеk: AC3
Видео: 1280x720 (16:9), 23.976 fps, AVC, 9 012 Kbps
Аудио: AC3, 192 Kbps, 48.0 KHz, 2 ch( "Союз-Видео")
Аудио #2: AC3, 448 Kbps, 48.0 KHz, 6 ch(AVO . Ю.Живов )
Аудио #3: DTS, 1 510 Kbps, 48.0 KHz, 6 ch

МедиаИнфо

Код:
General
Complete name                    : Spawn(1997) BDRip 720p.mkv
Format                           : Matroska
File size                        : 7.68 GiB
Duration                         : 1h 38mn
Overall bit rate                 : 11.2 Mbps
Encoded date                     : UTC 2012-07-21 20:10:08
Writing application              : mkvmerge v5.7.0 ('The Whirlwind') built on Jul  8 2012 20:08:51
Writing library                  : libebml v1.2.3 + libmatroska v1.3.0
Video
ID                               : 1
Format                           : AVC
Format/Info                      : Advanced Video Codec
Format profile                   : [email protected]
Format settings, CABAC           : Yes
Format settings, ReFrames        : 9 frames
Muxing mode                      : Container [email protected]
Codec ID                         : V_MPEG4/ISO/AVC
Duration                         : 1h 38mn
Bit rate                         : 9 012 Kbps
Width                            : 1 280 pixels
Height                           : 720 pixels
Display aspect ratio             : 16:9
Frame rate                       : 23.976 fps
Color space                      : YUV
Chroma subsampling               : 4:2:0
Bit depth                        : 8 bits
Scan type                        : Progressive
Bits/(Pixel*Frame)               : 0.408
Stream size                      : 6.05 GiB (79%)
Writing library                  : x264 core 125 r2200 999b753
Encoding settings                : cabac=1 / ref=9 / deblock=1:-3:-3 / analyse=0x3:0x113 / me=umh / subme=10 / psy=1 / psy_rd=1.10:0.25 / mixed_ref=1 / me_range=32 / chroma_me=1 / trellis=2 / 8x8dct=1 / cqm=0 / deadzone=21,11 / fast_pskip=0 / chroma_qp_offset=-4 / threads=6 / lookahead_threads=1 / sliced_threads=0 / nr=0 / decimate=0 / interlaced=0 / bluray_compat=0 / constrained_intra=0 / bframes=9 / b_pyramid=2 / b_adapt=2 / b_bias=0 / direct=3 / weightb=1 / open_gop=0 / weightp=2 / keyint=240 / keyint_min=23 / scenecut=40 / intra_refresh=0 / rc=2pass / mbtree=0 / bitrate=9012 / ratetol=1.0 / qcomp=0.80 / qpmin=10 / qpmax=51 / qpstep=4 / cplxblur=20.0 / qblur=0.5 / ip_ratio=1.40 / pb_ratio=1.30 / aq=2:0.80
Audio #1
ID                               : 2
Format                           : AC-3
Format/Info                      : Audio Coding 3
Format profile                   : Dolby Digital
Mode extension                   : CM (complete main)
Codec ID                         : A_AC3
Duration                         : 1h 38mn
Bit rate mode                    : Constant
Bit rate                         : 192 Kbps
Channel(s)                       : 2 channels
Channel positions                : Front: L R
Sampling rate                    : 48.0 KHz
Bit depth                        : 16 bits
Stream size                      : 135 MiB (2%)
Title                            : Союз-Видео
Language                         : Russian
Audio #2
ID                               : 3
Format                           : AC-3
Format/Info                      : Audio Coding 3
Mode extension                   : CM (complete main)
Codec ID                         : A_AC3
Duration                         : 1h 38mn
Bit rate mode                    : Constant
Bit rate                         : 448 Kbps
Channel(s)                       : 6 channels
Channel positions                : Front: L C R, Side: L R, LFE
Sampling rate                    : 48.0 KHz
Bit depth                        : 16 bits
Stream size                      : 316 MiB (4%)
Title                            : Ю. Живов
Language                         : Russian
Audio #3
ID                               : 4
Format                           : DTS
Format/Info                      : Digital Theater Systems
Codec ID                         : A_DTS
Duration                         : 1h 38mn
Bit rate mode                    : Constant
Bit rate                         : 1 510 Kbps
Channel(s)                       : 6 channels
Channel positions                : Front: L C R, Side: L R, LFE
Sampling rate                    : 48.0 KHz
Bit depth                        : 24 bits
Stream size                      : 1.04 GiB (14%)
Text #1
ID                               : 5
Format                           : UTF-8
Codec ID                         : S_TEXT/UTF8
Codec ID/Info                    : UTF-8 Plain Text
Language                         : Russian
Text #2
ID                               : 6
Format                           : UTF-8
Codec ID                         : S_TEXT/UTF8
Codec ID/Info                    : UTF-8 Plain Text
Menu
00:00:00.000                     : en:Chapter 01
00:03:24.203                     : en:Chapter 02
00:06:20.797                     : en:Chapter 03
00:08:02.982                     : en:Chapter 04
00:11:28.562                     : en:Chapter 05
00:14:36.876                     : en:Chapter 06
00:18:34.238                     : en:Chapter 07
00:22:27.554                     : en:Chapter 08
00:26:49.232                     : en:Chapter 09
00:31:23.881                     : en:Chapter 10
00:33:02.980                     : en:Chapter 11
00:37:40.424                     : en:Chapter 12
00:45:22.720                     : en:Chapter 13
00:47:59.293                     : en:Chapter 14
00:52:18.969                     : en:Chapter 15
00:56:03.443                     : en:Chapter 16
01:04:19.021                     : en:Chapter 17
01:07:48.439                     : en:Chapter 18
01:09:50.060                     : en:Chapter 19
01:12:35.434                     : en:Chapter 20
01:16:43.932                     : en:Chapter 21
01:22:41.873                     : en:Chapter 22
01:26:14.294                     : en:Chapter 23
01:31:55.927                     : en:Chapter 24
01:38:33.115                     : en:Chapter 25

Знаете ли Вы, что...

» Поначалу предполагалось, что постановщиком ленты станет Тим Бёртон.
» Кличка собаки Спаз дана в честь постановщика спецэффектов Стива «Спаза» Уильямса.


Скриншоты

     
     

_________________
Человек – это канат, натянутый между животным и сверхчеловеком, – канат над пропастью.
В человеке ценно то, что он мост, а не цель. Фридрих Ницше
Other forum [Profile] [PM]
Display posts from previous:    
Reply to topic

The time now is: Today 03:47

All times are GMT + 3 Hours



You cannot post new topics in this forum
You cannot reply to topics in this forum
You cannot edit your posts in this forum
You cannot delete your posts in this forum
You cannot vote in polls in this forum
You cannot attach files in this forum
You cannot download files in this forum