Today is a free download without charge Download

Неуловимые (Артем Аксененко) [2015, Россия, приключения, HDTV 1080i]

Reply to topic
 
Author
Message

Omen ®

Longevity: 8 years 10 months

Posts: 181086

Торрент-статистика

Post 16-Feb-2016 18:33

[Quote]

Неуловимые
Страна: Россия
Студия: Ультра фильм
Жанр: Приключения
Год выпуска: 2015
Продолжительность: 01:25:18
Оригинальная аудиодорожка: русский
Cубтитры: Нет
Режиссер: Артем Аксененко
В ролях:
Александра Бортич
Иван Шахназаров
Илья Маланин
Анвар Халилулаев
Денис Шведов
Евгений Мундум
Джемал Тетруашвили
Ксения Баскакова
Павел Юлку
Александр Сазонов
Описание: Ночью в центре Москвы сбита девушка, ей срочно нужна сложнейшая операция. Ее подруга Кира находит виновника, наглого и циничного олигарха Сергея Полянского, который отказывается признать свою вину и помочь пострадавшей. Ему плевать, у него все схвачено. В отчаянии Кира обращается за помощью к трем парням симпатизирующим ей — быковатому Феде, самоуверенному красавчику Артему и компьютерному гению Жене. Парни заключают между собой пакт — «поможем девушке, накажем негодяя, а потом решим, кто станет ее парнем».
Доп. информация: Запись со спутника Eutelsat 36A/B, телеканал "Наше HD".
Сэмпл: http://multi-up.com/1089322
Релиз:
Тип релиза: HDTV 1080i
Контейнер: MKV
Видео: AVC, 1920x1080i, 25.000 fps, 13658 kbps
Аудио: Русский (Dolby AC3 5.1, 48 kHz, 448 kbps)

MediaInfo

Общее
Уникальный идентификатор : 219137899548297144254544385070939616269 (0xA4DC6C9CE4F8474598FD9B9CEE99B40D)
Полное имя : D:\Неуловимые_2015_HDTV_1080i.mkv
Формат : Matroska
Версия формата : Version 2
Размер файла : 8,41 Гбайт
Продолжительность : 1 ч. 25 м.
Общий поток : 14,1 Мбит/сек
Дата кодирования : UTC 2016-02-14 18:07:51
Программа кодирования : mkvmerge v5.6.0 ('Kenya Kane') built on May 27 2012 16:44:04
Библиотека кодирования : libebml v1.2.3 + libmatroska v1.3.0
Видео
Идентификатор : 1
Формат : AVC
Формат/Информация : Advanced Video Codec
Профиль формата : [email protected]
Параметр CABAC формата : Да
Параметр ReFrames формата : 3 кадра
Идентификатор кодека : V_MPEG4/ISO/AVC
Продолжительность : 1 ч. 25 м.
Битрейт : 13,4 Мбит/сек
Ширина : 1920 пикселей
Высота : 1080 пикселей
Соотношение сторон : 16:9
Режим частоты кадров : Постоянный
Частота кадров : 25,000 кадров/сек
Стандарт вещания : Component
Цветовое пространство : YUV
Субдискретизация насыщенности : 4:2:0
Битовая глубина : 8 бит
Тип развёртки : Чересстрочная
Порядок развёртки : Верхнее поле первое
Бит/(Пиксели*Кадры) : 0.258
Размер потока : 7,97 Гбайт (95%)
Default : Да
Forced : Нет
Цветовой диапазон : Limited
Основные цвета : BT.709
Характеристики трансфера : BT.709
Коэффициенты матрицы : BT.709
Аудио
Идентификатор : 2
Формат : AC-3
Формат/Информация : Audio Coding 3
Расширение режима : CM (complete main)
Параметр Endianness формата : Big
Идентификатор кодека : A_AC3
Продолжительность : 1 ч. 25 м.
Вид битрейта : Постоянный
Битрейт : 448 Кбит/сек
Каналы : 6 каналов
Расположение каналов : Front: L C R, Side: L R, LFE
Частота : 48,0 КГц
Метод сжатия : С потерями
Задержка видео : 141 мс.
Размер потока : 273 Мбайт (3%)
Язык : Russian
Default : Да
Forced : Нет

Скриншоты

Other forum [Profile] [PM]
Display posts from previous:    
Reply to topic

The time now is: Today 22:16

All times are GMT + 3 Hours



You cannot post new topics in this forum
You cannot reply to topics in this forum
You cannot edit your posts in this forum
You cannot delete your posts in this forum
You cannot vote in polls in this forum
You cannot attach files in this forum
You cannot download files in this forum