Today is a free download without charge Download

Гришкины книжки (Ефрем Пружанский) [1979, СССР, Рисованный мультфильм, WEBRip]

Reply to topic
 
Author
Message

Omen ®

Longevity: 7 years 11 months

Posts: 181087

Торрент-статистика

Post 13-Feb-2016 03:00

[Quote]

Гришкины книжки
Страна: СССР
Жанр: Рисованный мультфильм
Продолжительность: 00:09:04
Год выпуска: 1979
Русские субтитры: нет
Режиссёр: Ефрем Пружанский
Роли озвучивали: Детский хор и солисты украинского радио
Описание: По стихотворению Маршака "Книжка про книжку".
Доп. информация: Киевнаучфильм»
Автор сценария: В. Капустян
Художник-постановщик: Н. Чурилов
Композитор: М. Скорик
Оператор: А. Гаврилов
Звукооператор: И. Мойжес
Редактор: Ю. Зморович
Художники-мультипликаторы: И. Бородавко, А. Викен, В. Врублевский,М. Драйцун, Э. Перетятько, Н. Чурилова, Я. Селезнева
Директор картины: И. Мазепа
Качество: WEBRip
Формат: AVI
Видео: 704x528 (1.33:1), 25 fps, XviD build 50 ~3053 kbps avg, 0.33 bit/pixel
Аудио: 44.100 kHz, MPEG Layer 3, 2 ch, ~192.00 kbps avg
Субтитры: нет

Подробные технические данные

Format : AVIFormat/Info : Audio Video InterleaveFile size : 212 MiBDuration : 9mn 4sOverall bit rate : 3 258 KbpsWriting application : MEncoder SVN-r30881(20100311-gcc4.3.3)Writing library : MPlayer
VideoID : 0Format : MPEG-4 VisualFormat profile : Advanced [email protected] settings, BVOP : 2Format settings, QPel : NoFormat settings, GMC : No warppointsFormat settings, Matrix : Default (H.263)Codec ID : XVIDCodec ID/Hint : XviDDuration : 9mn 4sBit rate : 3 054 KbpsWidth : 704 pixelsHeight : 528 pixelsDisplay aspect ratio : 1.297Original display aspect ratio : 4:3Frame rate : 25.000 fpsColor space : YUVChroma subsampling : 4:2:0Bit depth : 8 bitsScan type : ProgressiveCompression mode : LossyBits/(Pixel*Frame) : 0.329Stream size : 198 MiB (94%)Writing library : XviD 1.2.1 (UTC 2008-12-04)
AudioID : 1Format : MPEG AudioFormat version : Version 1Format profile : Layer 3Mode : Joint stereoMode extension : MS StereoCodec ID : 55Codec ID/Hint : MP3Duration : 9mn 4sBit rate mode : ConstantBit rate : 192 KbpsChannel(s) : 2 channelsSampling rate : 44.1 KHzCompression mode : LossyDelay relative to video : 40msStream size : 12.5 MiB (6%)Alignment : Aligned on interleavesInterleave, duration : 26 ms (0.65 video frame)Interleave, preload duration : 522 ms

Скриншоты

Other forum [Profile] [PM]
Display posts from previous:    
Reply to topic

The time now is: Today 15:53

All times are GMT + 3 Hours



You cannot post new topics in this forum
You cannot reply to topics in this forum
You cannot edit your posts in this forum
You cannot delete your posts in this forum
You cannot vote in polls in this forum
You cannot attach files in this forum
You cannot download files in this forum