Today is a free download without charge Download

Быстрее, чем кролики (Дмитрий Дьяченко) [2013, Россия, комедия, BDRip 720p]

Reply to topic
 
Author
Message

Omen ®

Longevity: 8 years 10 months

Posts: 181086

Торрент-статистика

Post 11-Feb-2016 15:33

[Quote]

Быстрее, чем кролики
Страна: Россия
Жанр: комедия
Год выпуска: 2013
Продолжительность: 01:35:44
Перевод: Не требуется
Cубтитры: нет
Режиссер: Дмитрий Дьяченко
В ролях: Леонид Барац, Александр Демидов, Камиль Ларин, Ростислав Хаит, Игорь Золотовицкий, Екатерина Кузнецова, Артем Смола, Григорий Данцигер, Дмитрий Дибров, Валдис Пельш
Описание: Трое друзей после бурной вечеринки просыпаются в совершенно незнакомом месте в компании незнакомых людей и пытаются понять, как они здесь оказались, кто все эти люди, и что на самом деле произошло накануне…
Что делают и о чем говорят мужчины в такой необычной ситуации?
Сэмпл: http://sendfile.su/1203087
Тип релиза: BDRip 720p
Контейнер: MKV
Видео: MPEG-4 AVC/H.264 / 6085 kbps / 1280x534 / 24.000 fps
Аудио: DTS / 6 ch / 1509 kbps / 48 kHz

MediaInfo

General
Unique ID : 173632633852340735976574044092584132590 (0x82A06DCB7776C786ADE05F1E1E837FEE)
Complete name : J:\Torrents\Быстрее, чем кролики (2014) BDRip-720p.mkv
Format : Matroska
Format version : Version 2
File size : 5.18 GiB
Duration : 1h 35mn
Overall bit rate : 7 748 Kbps
Movie name : Быстрее, чем кролики (2014)
Encoded date : UTC 2016-02-11 11:52:10
Writing application : mkvmerge v5.5.0 ('Healer') built on Apr 24 2012 23:47:03
Writing library : libebml v1.2.3 + libmatroska v1.3.0
Video
ID : 1
Format : AVC
Format/Info : Advanced Video Codec
Format profile : [email protected]
Format settings, CABAC : Yes
Format settings, ReFrames : 2 frames
Codec ID : V_MPEG4/ISO/AVC
Duration : 1h 35mn
Bit rate : 6 085 Kbps
Width : 1 280 pixels
Height : 534 pixels
Display aspect ratio : 2.40:1
Frame rate mode : Constant
Frame rate : 24.000 fps
Color space : YUV
Chroma subsampling : 4:2:0
Bit depth : 8 bits
Scan type : Progressive
Bits/(Pixel*Frame) : 0.371
Stream size : 4.07 GiB (79%)
Title : BDRip (720p) / MPEG-4 AVC/H.264 / 6085 kbps / 1280x534 / 24.000 fps
Writing library : x264 core 140 r2377+40 929f149 tMod [[email protected] X86_64]
Encoding settings : cabac=1 / ref=2 / deblock=1:0:0 / analyse=0x3:0x133 / me=dia / subme=2 / psy=1 / fade_compensate=0.00 / psy_rd=1.00:0.00 / mixed_ref=1 / me_range=16 / chroma_me=1 / trellis=2 / 8x8dct=1 / cqm=0 / deadzone=21,11 / fast_pskip=0 / chroma_qp_offset=0 / threads=12 / lookahead_threads=4 / sliced_threads=0 / nr=0 / decimate=1 / interlaced=0 / bluray_compat=0 / constrained_intra=0 / fgo=0 / bframes=1 / b_pyramid=0 / b_adapt=2 / b_bias=0 / direct=1 / weightb=1 / open_gop=0 / weightp=2 / keyint=240 / keyint_min=24 / scenecut=40 / intra_refresh=0 / rc=crf / mbtree=0 / crf=16.6000 / qcomp=0.60 / qpmin=0:0:0 / qpmax=69:69:69 / qpstep=4 / ip_ratio=1.25 / pb_ratio=1.15 / aq=4:0.80 / aq-sensitivity=10.00 / aq-factor=1.00:1.00:1.00 / aq2=0 / aq3=0
Language : Russian
Default : Yes
Forced : Yes
Audio
ID : 2
Format : DTS
Format/Info : Digital Theater Systems
Mode : 16
Format settings, Endianness : Big
Codec ID : A_DTS
Duration : 1h 35mn
Bit rate mode : Constant
Bit rate : 1 509 Kbps
Channel(s) : 6 channels
Channel positions : Front: L C R, Side: L R, LFE
Sampling rate : 48.0 KHz
Frame rate : 93.750 fps (512 spf)
Bit depth : 16 bits
Compression mode : Lossy
Stream size : 1.01 GiB (19%)
Title : Original (Rus) / DTS / 6 ch / 1509 kbps / 48 kHz
Language : Russian
Default : Yes
Forced : Yes
Menu
00:00:00.000 : en:00:00:00.000
00:00:04.000 : en:00:00:04.000
00:12:41.875 : en:00:12:41.875
00:25:06.875 : en:00:25:06.875
00:36:01.167 : en:00:36:01.167
00:48:11.417 : en:00:48:11.417
00:55:53.667 : en:00:55:53.667
01:11:01.375 : en:01:11:01.375
01:24:11.750 : en:01:24:11.750

Скриншоты

Other forum [Profile] [PM]
Display posts from previous:    
Reply to topic

The time now is: Today 15:33

All times are GMT + 3 Hours



You cannot post new topics in this forum
You cannot reply to topics in this forum
You cannot edit your posts in this forum
You cannot delete your posts in this forum
You cannot vote in polls in this forum
You cannot attach files in this forum
You cannot download files in this forum