Today is a free download without charge Download

[Белорусский] В. Вольскі, З. Якутовіч - Вольский, Якутович - Дзед і жораў. Дымок ад аўсянай кашы / Дед и журавль. Дымок от овсяной каши [Пахомава,Пражэева,Рагачоў,Сарычаў,Уласаў,Кашнер,Аўсяньнікаў,Гарбук,Громава,Уладамірскі, 2008 г., lossless, FLAC]

Reply to topic
 
Author
Message

Omen ®

Longevity: 8 years 6 months

Posts: 181087

Торрент-статистика

Post 11-Feb-2016 06:33

[Quote]

Дзед і жораў. Дымок ад аўсянай кашы / Дед и журавль. Дымок от овсяной каши
Год выпуска: 2008 г.
Язык: Белорусский
Фамилия автора на языке аудиокниги: В. Вольскі, З. Якутовіч
Имя автора на языке аудиокниги: 1
Фамилия автора на русском языке: Вольский, Якутович
Имя автора на русском языке: 1
Исполнитель на языке аудиокниги: "Дзед і жораў": А.Пахомава,В.Пражэева,Я.Рагачоў,Ю.Сарычаў,У.Уласаў,А.Кашнер. "Дымок ад аўсянай кашы": Г. Аўсяньнікаў, Г. Гарбук, М. Громава, Б. Уладамірскі
Жанр: Сказки
Издательство: БелТонМедыя
Оцифровано: Собственный CD
Время звучания: 01h 05min 00sec
Тип аудиокниги: аудиоспектакль
Аудио кодек: FLAC
Битрейт аудио: lossless
Описание: 2 замечательных детских спектакля.

Лог снятия рипа

Exact Audio Copy V0.99 prebeta 5 from 4. May 2009
Отчёт EAC об извлечении, выполненном 1. августа 2011, 10:59
Various / Дзед і жораў. Дымок ад аўсянай кашы
Дисковод: _NEC DVD_RW ND-3550A Adapter: 0 ID: 0
Режим чтения : ДостоверностьИспользование точного потока : ДаОтключение кэша аудио : ДаИспользование указателей C2 : Нет
Коррекция смещения при чтении : 48Способность читать области Lead-in и Lead-out : НетЗаполнение пропущенных сэмплов тишиной : ДаУдаление блоков с тишиной в начале и конце : НетПри вычислениях CRC использовались нулевые сэмплы : ДаИнтерфейс : Установленный внешний ASPI-интерфейс
Выходной формат : Внутренние WAV-операцииФормат сэмплов : 44.100 Гц; 16 бит; стерео
TOC извлечённого CD
Трек | Старт | Длительность | Начальный сектор | Конечный сектор --------------------------------------------------------------------- 1 | 0:00.00 | 6:25.17 | 0 | 28891 2 | 6:25.17 | 5:57.07 | 28892 | 55673 3 | 12:22.24 | 5:40.36 | 55674 | 81209 4 | 18:02.60 | 7:09.25 | 81210 | 113409 5 | 25:12.10 | 6:24.00 | 113410 | 142209 6 | 31:36.10 | 4:46.29 | 142210 | 163688 7 | 36:22.39 | 7:11.00 | 163689 | 196013 8 | 43:33.39 | 6:34.37 | 196014 | 225600 9 | 50:08.01 | 7:09.38 | 225601 | 257813 10 | 57:17.39 | 7:43.31 | 257814 | 292569
Характеристики диапазона извлечения и сообщения об ошибках
Выбранный диапазон
Имя файла F:\Music lossless\Various - Дзед і жораў. Дымок ад аўсянай кашы.wav
Пиковый уровень 100.0 % Качество диапазона 99.9 % CRC копии 711F584B Копирование... OK
Ошибок не произошло
AccurateRip: сводка
Трек 1 нет в базе данныхТрек 2 нет в базе данныхТрек 3 нет в базе данныхТрек 4 нет в базе данныхТрек 5 нет в базе данныхТрек 6 нет в базе данныхТрек 7 нет в базе данныхТрек 8 нет в базе данныхТрек 9 нет в базе данныхТрек 10 нет в базе данных
Ни одного трека нет в базе AccurateRip
Конец отчёта

Проект «Беларусь на /*spam*/»

Приветствую вас на моём проекте «Беларусь на /*spam*/». Давно стал воспринимать портал, как дело уже не просто русское, а международное (наверное, после того, как увидел, что “Музыку Беларуси XVIII столетия” у меня качал японец, а дальше были шведы, финны, португальцы, американцы…). Поэтому для меня стало очевидно, что Беларусь здесь должна присутствовать наравне с остальными странами, а где-то их и обгонять:) Как? Естественно, здесь должны быть белорусские раздачи:) Чему я и посвятил своё свободное время. Результат перед вами, удачного вам путешествия!
Музыка и фильмы, книги и аудиокниги, фотосессии и аудиоспектакли, предложенные Вашему вниманию, приоткроют завесу неизвестности над нашей культурой и историей.
Релиз группы:
Other forum [Profile] [PM]
Display posts from previous:    
Reply to topic

The time now is: Today 11:18

All times are GMT + 3 Hours



You cannot post new topics in this forum
You cannot reply to topics in this forum
You cannot edit your posts in this forum
You cannot delete your posts in this forum
You cannot vote in polls in this forum
You cannot attach files in this forum
You cannot download files in this forum