Today is a free download without charge Download

Страна чудес (Дмитрий Дьяченко, Максим Свешников) [2015, Россия, комедия, BDRip 720p]

Reply to topic
 
Author
Message

Omen ®

Longevity: 8 years 10 months

Posts: 181086

Торрент-статистика

Post 10-Feb-2016 15:33

[Quote]

Страна чудес- Страна: Россия
Жанр: комедия
Год выпуска: 2015
Продолжительность: 01:23:11
Перевод: Не требуется
Cубтитры: нет
Оригинальная аудиодорожка: русский
Режиссер: Дмитрий Дьяченко, Максим Свешников
В ролях: Елена Яковлева, Федор Добронравов, Александр Паль, Олеся Железняк, Сергей Лавыгин, Грант Тохатян, Ольга Лерман, Тимофей Трибунцев, Иван Добронравов, Анна Назарова
Описание: Герои фильма - жители самых разных уголков нашей страны, самые обычные люди, с которыми случаются самые необычные вещи, просто чудеса какие-то.
Семье пожарных Семёну и Любе из Костромы выпадает шанс осуществить заветную мечту: поехать в Москву на любимую программу «Поле Чудес», где им предстоит сделать выбор всей жизни «приз или деньги?». Неопытный ППСник, но опытный неудачник Саня должен не только пережить свой первый день в патруле, но ещё принять роды у своей жены и реанимировать своего напарника. Четвёрка новоиспечённых приятелей должна во что бы то ни стало в нелётную погоду улететь в Москву, а пара юных влюблённых каким-то непостижимым способом - примирить своих непримиримых родителей. А Валере вообще предстоит решить дилемму: спасать человечество от всемирного потопа или просто улететь с дружками по караоке - пришельцами, на их cтареньком НЛО?

Тип релиза: BDRip 720р (исходник - Blu-ray)
Контейнер: MKV
Видео: 1280x536 (2.40:1), 24.000 fps, [email protected] ~5676 kbps avg
Аудио: 48 kHz, DTS, 3/2 (L,C,R,l,r) + LFE ch, ~1509.00 kbps avg

MediaInfo | x264 log

Format : Matroska
Format version : Version 4 / Version 2
File size : 4.26 GiB
Duration : 1h 23mn
Overall bit rate : 7 331 Kbps
Movie name : Страна чудес (2015) :: AFM ::
Encoded date : UTC 2016-02-10 11:42:54
Writing application : mkvmerge v8.3.0 ('Over the Horizon') 32bit
Writing library : libebml v1.3.1 + libmatroska v1.4.2
DURATION : 01:23:11.190000000
NUMBER_OF_FRAMES : 467924
NUMBER_OF_BYTES : 941464484
_STATISTICS_WRITING_APP : mkvmerge v8.3.0 ('Over the Horizon') 32bit
_STATISTICS_WRITING_DATE_UTC : 2016-02-10 11:42:54
_STATISTICS_TAGS : BPS DURATION NUMBER_OF_FRAMES NUMBER_OF_BYTES
Video
ID : 1
Format : AVC
Format/Info : Advanced Video Codec
Format profile : [email protected]
Format settings, CABAC : Yes
Format settings, ReFrames : 10 frames
Codec ID : V_MPEG4/ISO/AVC
Duration : 1h 23mn
Bit rate : 5 676 Kbps
Width : 1 280 pixels
Height : 536 pixels
Display aspect ratio : 2.40:1
Frame rate mode : Constant
Frame rate : 24.000 fps
Color space : YUV
Chroma subsampling : 4:2:0
Bit depth : 8 bits
Scan type : Progressive
Bits/(Pixel*Frame) : 0.345
Stream size : 3.30 GiB (77%)
Title : BDRip by AFM [/*spam*/]
Writing library : x264 core 148 r2665kMod a01e339
Encoding settings : cabac=1 / ref=10 / deblock=1:-3:-3 / analyse=0x3:0x113 / me=umh / subme=11 / psy=1 / fade_compensate=0.00 / psy_rd=1.00:0.00 / mixed_ref=1 / me_range=32 / chroma_me=1 / trellis=2 / 8x8dct=1 / cqm=0 / deadzone=21,11 / fast_pskip=0 / chroma_qp_offset=-2 / threads=6 / lookahead_threads=1 / sliced_threads=0 / nr=0 / decimate=1 / interlaced=0 / bluray_compat=0 / constrained_intra=0 / fgo=0 / bframes=13 / b_pyramid=2 / b_adapt=2 / b_bias=0 / direct=1 / weightb=1 / open_gop=0 / weightp=2 / keyint=250 / keyint_min=24 / scenecut=40 / intra_refresh=0 / rc_lookahead=40 / rc=crf / mbtree=0 / crf=17.2000 / qcomp=0.65 / qpmin=0 / qpmax=69 / qpstep=4 / vbv_maxrate=50000 / vbv_bufsize=62500 / crf_max=0.0 / nal_hrd=none / filler=0 / ip_ratio=1.40 / pb_ratio=1.30 / aq=2:0.90 / zones=113490,119788,q=35
Language : Russian
Default : Yes
Forced : No
DURATION : 01:23:11.167000000
NUMBER_OF_FRAMES : 119788
NUMBER_OF_BYTES : 3630651621
_STATISTICS_WRITING_APP : mkvmerge v8.3.0 ('Over the Horizon') 32bit
_STATISTICS_WRITING_DATE_UTC : 2016-02-10 11:42:54
_STATISTICS_TAGS : BPS DURATION NUMBER_OF_FRAMES NUMBER_OF_BYTES
Audio
ID : 2
Format : DTS
Format/Info : Digital Theater Systems
Mode : 16
Format settings, Endianness : Big
Codec ID : A_DTS
Duration : 1h 23mn
Bit rate mode : Constant
Bit rate : 1 509 Kbps
Channel(s) : 6 channels
Channel positions : Front: L C R, Side: L R, LFE
Sampling rate : 48.0 KHz
Bit depth : 24 bits
Compression mode : Lossy
Stream size : 898 MiB (21%)
Title : DTS, 5.1ch ~1509 kbps
Language : Russian
Default : Yes
Forced : No

x264

x264 [info]: frame I:1253 Avg QP:17.54 size:107957
x264 [info]: frame P:25181 Avg QP:19.19 size: 53696
x264 [info]: frame B:93354 Avg QP:21.58 size: 22958
x264 [info]: consecutive B-frames: 1.7% 1.7% 5.8% 26.9% 21.5% 29.4% 7.0% 1.4% 0.7% 2.8% 0.1% 0.0% 0.3% 0.5%
x264 [info]: mb I I16..4: 2.9% 78.3% 18.7%
x264 [info]: mb P I16..4: 0.9% 19.2% 2.2% P16..4: 27.7% 33.5% 12.5% 0.0% 0.0% skip: 4.0%
x264 [info]: mb B I16..4: 0.1% 3.0% 0.3% B16..8: 33.2% 21.6% 4.6% direct:10.5% skip:26.6% L0:39.6% L1:40.8% BI:19.6%
x264 [info]: 8x8 transform intra:85.8% inter:62.7%
x264 [info]: coded y,uvDC,uvAC intra: 92.1% 94.7% 84.5% inter: 39.2% 46.6% 21.6%
x264 [info]: i16 v,h,dc,p: 13% 14% 3% 70%
x264 [info]: i8 v,h,dc,ddl,ddr,vr,hd,vl,hu: 11% 8% 7% 9% 13% 13% 13% 12% 13%
x264 [info]: i4 v,h,dc,ddl,ddr,vr,hd,vl,hu: 14% 8% 4% 8% 15% 14% 13% 11% 12%
x264 [info]: i8c dc,h,v,p: 42% 16% 15% 28%
x264 [info]: Weighted P-Frames: Y:5.0% UV:3.9%
x264 [info]: ref P L0: 42.3% 11.7% 18.8% 6.8% 6.2% 4.1% 3.8% 2.1% 2.1% 1.8% 0.2% 0.0%
x264 [info]: ref B L0: 75.4% 10.9% 4.9% 2.9% 2.1% 1.7% 1.3% 0.6% 0.3%
x264 [info]: ref B L1: 94.0% 6.0%
x264 [info]: kb/s:5819.32

Скриншоты

Other forum [Profile] [PM]
Similar theme
Forum Topic Author Torrent Replies Last Post
./templates/default/images/folder_dl.gif Rock (Rock) Пикник - Чужестранец - 2014, FLAC (tracks), lossless sergej644
1 | 0

0 | 1739

14

2014-10-29 21:58
sergej644 Latest
Display posts from previous:    
Reply to topic

The time now is: Today 15:05

All times are GMT + 3 Hours



You cannot post new topics in this forum
You cannot reply to topics in this forum
You cannot edit your posts in this forum
You cannot delete your posts in this forum
You cannot vote in polls in this forum
You cannot attach files in this forum
You cannot download files in this forum