Today is a free download without charge Download

Громозека (2010) IPTVRip

Reply to topic
 
Author
Message

Delia ®

Gender:

Longevity: 10 years

Posts: 1821

Торрент-статистика

Post 26-Feb-2011 19:20

[Quote]

Громозека (2010) IPTVRip- Русское название: Громозека / Gromozeka
Год выпуска: 2011
Страна: Россия
Жанр: Драма
Бюджет: $1 200 000
Кинокомпания: TVINDIE Film Production
Описание фильма:
Милиционер Громов, врач Каминский и таксист Мозеров — одноклассники. Когда-то они вместе играли в школьном ансамбле «ГРОМОЗЕКА», были любимцами школьников и грозой учителей. Теперь им около сорока, и с каждым жизнь обошлась по-своему жестко: у одного погиб маленький пациент, другому изменяет жена, дочь третьего снимается в порнофильмах. Их пути не пересекаются. Но на вечере выпускников участники «ГРОМОЗЕКИ» снова собираются вместе, чтобы исполнить хиты восьмидесятых…
Режиссер: Владимир Котт
Продюсер: Евгений Гиндилис
Сценарий: Владимир Котт
Актеры: Леонид Громов, Донатас Грудович, Евгения Добровольская, Николай Добрынин, Борис Каморзин, Дарья Семенова, Тимофей Трибунцев, Полина Филоненко, Андрей Лебедев, Наталья Тетенова
Продолжительность: 01:43:26

Видеокодек: Xvid
Битрейт видео: ~1748 кб/сек , 25.000 fps
Размер кадра: 704х384
Качество видео: IPTVRip
Аудиокодек: MP3 2 ch
Битрейт аудио: CBR 128 кб/сек

Знаете ли вы, что...

>Фильм вошёл в конкурсную программу Международного Роттердамского кинофестиваля.
>В эпизодических ролях в картине появились актёры, в своё время сыгравшие главные роли в известных советских детских фильмах: братья Торсуевы («Приключения Электроника»), Дмитрий Иосифов («Приключения Буратино») и Яна Поплавская («Про Красную Шапочку»).

Рецензия

На дне одиночества
Отличный фильм. Простой, но не глупый. Трогательный, но не сопливый. Поучительный, но не навязчивый.
Смотрится очень легко, свободно, хотя тема невероятно сложная.
Это кино об одиночестве. Три школьных друга, когда-то игравшие в школьном ансамбле, давным-давно не общаются друг с другом. Все они растеряли своих близких, все глубоко несчастны, но каждый по-своему.
Один — мент. Он просиживает штаны в каком-то плесневелом РОВД. Не совершает подвигов, не спасает жизней. Занимается рутинной, нудной, никому не нужной работой. Отращивает брюшко, протирает на макушке плешь. Его все презирают. И сопливые коллеги-новобранцы, и сын-бандит, и апатичная, от всего уставшая жена. Он вял и нерешителен. Ему в лицо хохочут уличные хулиганы, ему хамит любовник жены.
Второй — таксист. Настоящий мужик, не мямля. Похоронив жену, он крутит баранку, зарабатывает деньги. Отдыхая от трудов праведных, расслабляется самым неприхотливым пролетарским способом: пиво, чипсы, диск с порнушкой. В бытовом круговороте он упускает из виду тот факт, что любимая дочка-красавица стала порноактрисой и уже давно зарабатывает куда больше него и утомленно-равнодушно смотрит на его страдания…
Третий — врач. Интеллектуал и циник. Он мечется между бесплодной женой и стареющей любовницей, вяло рефлексирует по поводу смерти ребенка-пациента и боится собственной наступающей смерти.
Все трое отчаянно одиноки. Им некуда пойти, не с кем поговорить о своих мучениях. Казалось бы, им нужно встретиться друг с другом, поплакаться в жилетку старым друзьям… Не тут-то было. Кошмар заключается в том, что и друг для друга они — абсолютно чужие. Их связывают только две обшарпанные гитары да ударная установка…
- Как живешь? Я неплохо…
- И я.
- Эхх. Да и я.
Вот и все… Глобальное одиночество. Беспросветное. А ведь начиналось-то неплохо! Была сцена, были яркие костюмы, и они пели: «Птица счастья завтрашнего дня Прилетела, крыльями звеня…». Завтрашний день уже наступил, а счастья что-то не видать.
И все же ощущения безнадежности от просмотра не остается. Потому что на самом дне отчаяния, на которое опускаются герои, все-таки остается надежда: близкие люди сделают шаг навстречу. Сын-бандит пожалеет и обнимет мента. Дочь-/личность с низкой социальной ответственностью/ улыбнется таксисту и простит его. Озлобленный и отчаявшийся врач спасет назойливого сумасшедшего соседа.
Светлое, честное и искреннее кино на действительно важную и всегда актуальную тему.

Mediainfo

Общее
Полное имя : L:\Фильмы\Upload\Gromozeka.2010.XviD.IPTVRip.avi
Формат : AVI
Формат/Информация : Audio Video Interleave
Размер файла : 1,36 Гбайт
Продолжительность : 1 ч. 43 м.
Общий поток : 1886 Кбит/сек
Программа кодирования : VirtualDubMod 1.5.10.2 (build 2540/release)
Библиотека кодирования : VirtualDubMod build 2540/release
Видео
Идентификатор : 0
Формат : MPEG-4 Visual
Профиль формата : Advanced [email protected]
Параметр BVOP формата : 1
Параметр QPel формата : Нет
Параметр GMC формата : Без точки перехода
Параметр матрицы формата : Default (MPEG)
Идентификатор кодека : XVID
Идентификатор кодека/Подсказка : XviD
Продолжительность : 1 ч. 43 м.
Битрейт : 1748 Кбит/сек
Ширина : 704 пикс.
Высота : 384 пикс.
Соотношение сторон : 16:9
Частота кадров : 25,000 кадр/сек
Цветовое пространство : YUV
Подвыборка цветности : 4:2:0
Битовая глубина : 8 бит
Тип развёртки : Прогрессивная
Метод сжатия : С потерями
Бит/(Пиксели*Кадры) : 0.259
Размер потока : 1,26 Гбайт (93%)
Библиотека кодирования : XviD 1.2.1 (UTC 2008-12-04)
Аудио
Идентификатор : 1
Формат : MPEG Audio
Версия формата : Version 1
Профиль формата : Layer 3
Идентификатор кодека : 55
Идентификатор кодека/Подсказка : MP3
Продолжительность : 1 ч. 43 м.
Вид битрейта : Постоянный
Битрейт : 128 Кбит/сек
Канал(ы) : 2 канала(ов)
Частота : 48,0 КГц
Метод сжатия : С потерями
Размер потока : 94,7 Мбайт (7%)
Выравнивание : Соединение по промежуткам
Продолжительность промежутка : 40 мс. (1,00 видеокадр)
Время предзагрузки промежутка : 504 ms
Библиотека кодирования : LAME3.98r
Настройки программы : -m s -V 4 -q 2 -lowpass 17 -b 128

Скриншоты:

     

_________________
Человек – это канат, натянутый между животным и сверхчеловеком, – канат над пропастью.
В человеке ценно то, что он мост, а не цель. Фридрих Ницше


Last edited by Delia on 2011-07-14 09:03; edited 4 times in total
Other forum [Profile] [PM]

Nugeiro

Gender:

Longevity: 9 years 7 months

Posts: 1981

Location: Украина, Шостка

Торрент-статистика

Post 14-Jul-2011 09:04 (after 4 months 15 days)

[Quote]

Поправил год, фильм 2011 года а не 2010. Smile

_________________
Other forum [Profile] [PM]

Dracula

Longevity: 7 years 1 month

Posts: 11397

Торрент-статистика

Post 14-Jul-2011 09:05 (after 26 seconds)

Топик был перенесен из форума Наше кино (2001 - 2010) в форум Наше кино (2011 Новинки)

Oxygenius
 
Display posts from previous:    
Reply to topic

The time now is: Today 11:04

All times are GMT + 3 Hours



You cannot post new topics in this forum
You cannot reply to topics in this forum
You cannot edit your posts in this forum
You cannot delete your posts in this forum
You cannot vote in polls in this forum
You cannot attach files in this forum
You cannot download files in this forum