Today is a free download without charge Download

22 минуты (Василий Сериков) [2014, Россия, боевик, BDRip-720p]

Reply to topic
 
Author
Message

Omen ®

Longevity: 8 years 10 months

Posts: 181086

Торрент-статистика

Post 10-Feb-2016 00:00

[Quote]

22 минуты
Страна: Россия
Жанр: боевик
Год выпуска: 2014
Продолжительность: 01:22:52
Перевод: Не требуется
Cубтитры: нет
Режиссер: Василий Сериков
В ролях: Макар Запорожский, Денис Никифоров, Виктор Сухоруков, Екатерина Маликова, Гаэль Камилинди, Александр Галибин, Владислав Демин, Ибрагим Тооре, Софья Козко, Иван Породнов
Описание: Морпех — первогодок Саня Ежов оказывается среди пиратов на захваченном танкере. Он знает — товарищи не бросят. Ему нужно выжить и помочь своим, когда начнется штурм. Фильм основан на реальных событиях 5 мая 2010 года, когда морские пехотинцы БПК «Маршал Шапошников» освободили захваченный в водах Аденского залива российский танкер «Московский университет». У них было только 22 минуты без права на ошибку…
Сэмпл: http://multi-up.com/1088429
Тип релиза: BDRip-720p
Контейнер: MKV
Видео: MPEG-4 AVC/H.264 / 4397 kbps / 1280x534 / 24.000 fps
Аудио: AC3 / 6 ch / 448 kbps / 48 kHz

MediaInfo

General
Unique ID : 234598346984734127280215500199503841918 (0xB07DFF85DA081BC19502BDF88D33CA7E)
Complete name : \\MISHGANPC\Torrents\22 минуты (2014) BDRip-720p.mkv
Format : Matroska
Format version : Version 2
File size : 2.80 GiB
Duration : 1h 22mn
Overall bit rate : 4 846 Kbps
Movie name : 22 минуты (2014)
Encoded date : UTC 2016-02-03 06:45:18
Writing application : mkvmerge v5.5.0 ('Healer') built on Apr 24 2012 23:47:03
Writing library : libebml v1.2.3 + libmatroska v1.3.0
Video
ID : 1
Format : AVC
Format/Info : Advanced Video Codec
Format profile : [email protected]
Format settings, CABAC : Yes
Format settings, ReFrames : 11 frames
Codec ID : V_MPEG4/ISO/AVC
Duration : 1h 22mn
Bit rate : 4 397 Kbps
Width : 1 280 pixels
Height : 534 pixels
Display aspect ratio : 2.40:1
Frame rate mode : Constant
Frame rate : 24.000 fps
Color space : YUV
Chroma subsampling : 4:2:0
Bit depth : 8 bits
Scan type : Progressive
Bits/(Pixel*Frame) : 0.268
Stream size : 2.49 GiB (89%)
Title : BDRip (720p) / MPEG-4 AVC/H.264 / 4397 kbps / 1280x534 / 24.000 fps
Writing library : x264 core 142 r2431 ac76440
Encoding settings : cabac=1 / ref=11 / deblock=1:-3:-3 / analyse=0x3:0x133 / me=umh / subme=11 / psy=1 / psy_rd=1.00:0.00 / mixed_ref=1 / me_range=32 / chroma_me=1 / trellis=2 / 8x8dct=1 / cqm=0 / deadzone=21,11 / fast_pskip=0 / chroma_qp_offset=-2 / threads=12 / lookahead_threads=2 / sliced_threads=0 / nr=0 / decimate=0 / interlaced=0 / bluray_compat=0 / constrained_intra=0 / bframes=9 / b_pyramid=2 / b_adapt=2 / b_bias=0 / direct=3 / weightb=1 / open_gop=0 / weightp=2 / keyint=240 / keyint_min=24 / scenecut=40 / intra_refresh=0 / rc=2pass / mbtree=0 / bitrate=4397 / ratetol=1.0 / qcomp=0.60 / qpmin=0 / qpmax=69 / qpstep=4 / cplxblur=20.0 / qblur=0.5 / ip_ratio=1.40 / pb_ratio=1.30 / aq=1:1.00
Language : Russian
Default : Yes
Forced : Yes
Audio
ID : 2
Format : AC-3
Format/Info : Audio Coding 3
Mode extension : CM (complete main)
Format settings, Endianness : Big
Codec ID : A_AC3
Duration : 1h 22mn
Bit rate mode : Constant
Bit rate : 448 Kbps
Channel(s) : 6 channels
Channel positions : Front: L C R, Side: L R, LFE
Sampling rate : 48.0 KHz
Frame rate : 31.250 fps (1536 spf)
Compression mode : Lossy
Stream size : 265 MiB (9%)
Title : Original (Rus) / AC3 / 6 ch / 448 kbps / 48 kHz
Language : Russian
Default : Yes
Forced : Yes
Menu
00:00:00.000 : en:(01)00:00:00:000
00:00:04.000 : en:(02)00:00:04:000
00:08:16.166 : en:(03)00:08:16:166
00:19:07.791 : en:(04)00:19:07:791
00:30:32.583 : en:(05)00:30:32:583
00:39:31.166 : en:(06)00:39:31:166
00:54:49.500 : en:(07)00:54:49:500
01:01:45.375 : en:(08)01:01:45:375
01:11:12.541 : en:(09)01:11:12:541

Скриншоты

Other forum [Profile] [PM]
Display posts from previous:    
Reply to topic

The time now is: Today 21:08

All times are GMT + 3 Hours



You cannot post new topics in this forum
You cannot reply to topics in this forum
You cannot edit your posts in this forum
You cannot delete your posts in this forum
You cannot vote in polls in this forum
You cannot attach files in this forum
You cannot download files in this forum