Today is a free download without charge Download

Беовульф / Beowulf (Роберт Земекис / Robert Zemeckis) [2007 г., Боевик, фэнтези, драма, BDRIp 720p] [Режиссёрская версия / Director's Cut]

Reply to topic
 
Author
Message

Delia ®

Gender:

Longevity: 10 years

Posts: 1821

Торрент-статистика

Post 19-Jul-2012 10:44

[Quote]

Беовульф / Beowulf--
Год выпуска: 2007 (USA Transfer)
Страна: США
Жанр: анимация, приключенческий фильм, кинофантазия
Продолжительность: 01:54:42
Перевод: Профессиональный (дублированный)
Субтитры: Russian , engish (srt)
Режиссер: Роберт Земекис / Robert Zemeckis
Сценарий: Нил Гэйман / Neil Gaiman, Роджер Эйвери / Roger Avary, Anonymous
Продюсер: Роджер Эйвери / Roger Avary, Стивен Дж. Бойд / Steven J. Boyd, Нил Гэйман / Neil Gaiman
Оператор: Роберт Пресли / Robert Presley
Композитор: Алан Силвестри / Alan Silvestri
Художник: Даг Чиэнг / Doug Chiang, Норман Ньюберри / Norman Newberry, Грег Папалиа / Greg Papalia
Монтаж: Джеремайя О'Дрисколл / Jeremiah O'Driscoll-В ролях: Рэй Уинстоун / Ray Winstone, Энтони Хопкинс / Anthony Hopkins , Джон Малкович / John Malkovich , Робин Райт Пенн / Robin Wright Penn, Брендан Глисон / Brendan Gleeson, Криспин Гловер / Crispin Glover, Элисон Ломан / Alison Lohman, Анджелина Джоли / Angelina Jolie , Пол Бейкер / Paul Baker, John Bilezikjian, Род Д. Харбор / Rod D. Harbour, Брайс Мартин / Brice Martin, Сонйе Фортаг / Sonje Fortag, Sharisse Baker-Bernard, Шарлотт Салт / Charlotte Salt, Джулен Рени / Julene Renee, Грег Эллис / Greg Ellis, Рик Янг / Rik Young, Себастьян Роше / Sebastian Roche, Лесли Земекис / Leslie Zemeckis
Описание: «Беовульф» снят по мотивам англосаксонского эпоса, в котором рассказывается о подвигах одноименного скандинавского героя, освободившего жителей Дании от необузданного злодея Грендела. Фильм представляет собой приключенческую картину, повествующую о любви и предательстве, драконах и рыцарях.--- --Качество: BDRip
Формат: MKV
Видео кодек: H.264 (AVC)
Аудио кодеk: AC3
Видео: 1280x544 (2.35:1), 23.976 fps, AVC, 4 817 Kbps
Аудио: AC3, 640 Kbps, 48.0 KHz, 6 ch

МедиаИнфо

Код:
General
Complete name                    : Beowulf (2007)BDRip-F.HD.mkv
Format                           : Matroska
File size                        : 4.37 GiB
Duration                         : 1h 54mn
Overall bit rate                 : 5 453 Kbps
Encoded date                     : UTC 2012-07-19 06:30:52
Writing application              : mkvmerge v5.6.0 ('Kenya Kane') built on May 27 2012 16:44:04
Writing library                  : libebml v1.2.3 + libmatroska v1.3.0
Video
ID                               : 1
Format                           : AVC
Format/Info                      : Advanced Video Codec
Format profile                   : [email protected]
Format settings, CABAC           : Yes
Format settings, ReFrames        : 8 frames
Muxing mode                      : Container [email protected]
Codec ID                         : V_MPEG4/ISO/AVC
Duration                         : 1h 54mn
Bit rate                         : 4 817 Kbps
Width                            : 1 280 pixels
Height                           : 544 pixels
Display aspect ratio             : 2.35:1
Frame rate                       : 23.976 fps
Color space                      : YUV
Chroma subsampling               : 4:2:0
Bit depth                        : 8 bits
Scan type                        : Progressive
Bits/(Pixel*Frame)               : 0.289
Stream size                      : 3.77 GiB (86%)
Writing library                  : x264 core 125 r2200 999b753
Encoding settings                : cabac=1 / ref=8 / deblock=1:0:0 / analyse=0x3:0x113 / me=umh / subme=10 / psy=1 / psy_rd=1.00:0.00 / mixed_ref=1 / me_range=48 / chroma_me=1 / trellis=2 / 8x8dct=1 / cqm=0 / deadzone=21,11 / fast_pskip=0 / chroma_qp_offset=-2 / threads=6 / lookahead_threads=1 / sliced_threads=0 / nr=0 / decimate=1 / interlaced=0 / bluray_compat=0 / constrained_intra=0 / bframes=7 / b_pyramid=2 / b_adapt=2 / b_bias=0 / direct=3 / weightb=1 / open_gop=0 / weightp=2 / keyint=240 / keyint_min=23 / scenecut=40 / intra_refresh=0 / rc=2pass / mbtree=0 / bitrate=4817 / ratetol=1.0 / qcomp=0.70 / qpmin=10 / qpmax=51 / qpstep=4 / cplxblur=20.0 / qblur=0.5 / ip_ratio=1.40 / pb_ratio=1.30 / aq=1:0.80
Color primaries                  : BT.709-5, BT.1361, IEC 61966-2-4, SMPTE RP177
Transfer characteristics         : BT.709-5, BT.1361
Matrix coefficients              : BT.709-5, BT.1361, IEC 61966-2-4 709, SMPTE RP177
Audio
ID                               : 2
Format                           : AC-3
Format/Info                      : Audio Coding 3
Mode extension                   : CM (complete main)
Codec ID                         : A_AC3
Duration                         : 1h 54mn
Bit rate mode                    : Constant
Bit rate                         : 640 Kbps
Channel(s)                       : 6 channels
Channel positions                : Front: L C R, Side: L R, LFE
Sampling rate                    : 48.0 KHz
Bit depth                        : 16 bits
Stream size                      : 525 MiB (12%)
Language                         : Russian
Text #1
ID                               : 3
Format                           : UTF-8
Codec ID                         : S_TEXT/UTF8
Codec ID/Info                    : UTF-8 Plain Text
Language                         : Russian
Text #2
ID                               : 4
Format                           : UTF-8
Codec ID                         : S_TEXT/UTF8
Codec ID/Info                    : UTF-8 Plain Text
Menu
00:00:00.000                     : en:Chapter 01
00:07:43.963                     : en:Chapter 02
00:15:34.433                     : en:Chapter 03
00:22:25.844                     : en:Chapter 04
00:31:00.275                     : en:Chapter 05
00:38:05.241                     : en:Chapter 06
00:46:33.499                     : en:Chapter 07
00:54:56.543                     : en:Chapter 08
01:02:38.254                     : en:Chapter 09
01:08:38.197                     : en:Chapter 10
01:15:25.604                     : en:Chapter 11
01:23:59.492                     : en:Chapter 12
01:29:31.366                     : en:Chapter 13
01:38:09.049                     : en:Chapter 14
01:45:52.721                     : en:Chapter 15


Скриншоты

     
     
     

_________________
Человек – это канат, натянутый между животным и сверхчеловеком, – канат над пропастью.
В человеке ценно то, что он мост, а не цель. Фридрих Ницше
Other forum [Profile] [PM]
Display posts from previous:    
Reply to topic

The time now is: Today 06:19

All times are GMT + 3 Hours



You cannot post new topics in this forum
You cannot reply to topics in this forum
You cannot edit your posts in this forum
You cannot delete your posts in this forum
You cannot vote in polls in this forum
You cannot attach files in this forum
You cannot download files in this forum