Today is a free download without charge Download

Чародей равновесия. Тайна Сухаревой башни (Сергей Серегин) [2015, Россия, Мультфильм, WEB-DLRip]

Reply to topic
 
Author
Message

Omen ®

Longevity: 7 years 11 months

Posts: 181087

Торрент-статистика

Post 09-Feb-2016 15:03

[Quote]

Чародей равновесия. Тайна Сухаревой башни
Страна: Россия
Жанр: Мультфильм
Продолжительность: 01:13:24
Год выпуска: 2015
Перевод: Не требуется
Русские субтитры: нет
Режиссёр: Сергей Серегин
Роли озвучивали: Прохор Чеховской, Ольга Шорохова, Диомид Виноградов, Александр Тараньжин, Станислав Дужников, Вадим Демчог, Алла Санникова, Сергей Габриэлян, Алексей Емцов, Алексей Иващенко
Описание: Во времена царя Петра Первого Российская империя впервые стала праздновать Новый год. Но это событие вызвало на свободу настоящее зло, которое стремится завладеть миром с помощью черной магии. Во всем виноват злой колдун, который пытается проникнуть в Волшебный мир. Но сделать он может только в Сухаревой башне, которую защищает Яков Брюс - Чародей Равновесия. Но с Брюсом произошла неприятность, вернее - с его магическим манускриптом, который случайно разорвали дети. Однако, все можно исправить и вернуть Брюсу его магические способности. Но сделать это могут только те же дети. Смогут ли ребята противостоять всему тому, что ожидает их в Волшебном мире?
Семпл: https://www.sendspace.com/file/krvc29
Качество: WEB-DLRip
Формат: AVI
Видео: XVID; 2275 Кбит/сек; 720х400 (16:9); 25,000 кадров/сек
Аудио: AC-3; 384 Кбит/сек; 6 каналов; 48,0 КГц
Субтитры: Нет

Подробные технические данные

ОбщееПолное имя : E:\закачки\Человек равновесия [/*spam*/].aviФормат : AVIФормат/Информация : Audio Video InterleaveРазмер файла : 1,37 ГбайтПродолжительность : 1 ч. 13 м.Общий поток : 2669 Кбит/секПрограмма кодирования : VirtualDubMod 1.5.10.2 (build 2540/release)Библиотека кодирования : VirtualDubMod build 2540/release
ВидеоИдентификатор : 0Формат : MPEG-4 VisualПрофиль формата : Advanced [email protected]Параметр BVOP формата : 1Параметр QPel формата : НетПараметр GMC формата : Без точки переходаПараметр матрицы формата : Default (H.263)Идентификатор кодека : XVIDИдентификатор кодека/Подсказка : XviDПродолжительность : 1 ч. 13 м.Битрейт : 2275 Кбит/секШирина : 720 пикселейВысота : 400 пикселейСоотношение сторон : 16:9Частота кадров : 25,000 кадров/секЦветовое пространство : YUVСубдискретизация насыщенности : 4:2:0Битовая глубина : 8 битТип развёртки : ПрогрессивнаяМетод сжатия : С потерямиБит/(Пиксели*Кадры) : 0.316Размер потока : 1,17 Гбайт (85%)Библиотека кодирования : XviD 1.2.1 (UTC 2008-12-04)
АудиоИдентификатор : 1Формат : AC-3Формат/Информация : Audio Coding 3Расширение режима : CM (complete main)Параметр Endianness формата : BigИдентификатор кодека : 2000Продолжительность : 1 ч. 13 м.Вид битрейта : ПостоянныйБитрейт : 384 Кбит/секКаналы : 6 каналовРасположение каналов : Front: L C R, Side: L R, LFEЧастота : 48,0 КГцБитовая глубина : 16 битМетод сжатия : С потерямиРазмер потока : 202 Мбайт (14%)Выравнивание : Соединение по промежуткамПродолжительность промежутка : 40 мс. (1,00 видеокадр)Время предзагрузки промежутка : 512 мс.

Скриншоты

Other forum [Profile] [PM]
Display posts from previous:    
Reply to topic

The time now is: Today 12:00

All times are GMT + 3 Hours



You cannot post new topics in this forum
You cannot reply to topics in this forum
You cannot edit your posts in this forum
You cannot delete your posts in this forum
You cannot vote in polls in this forum
You cannot attach files in this forum
You cannot download files in this forum