Today is a free download without charge Download

Хороший динозавр / The Good Dinosaur (2015) HDRip

Reply to topic
 
Author
Message

Region_13 ®

Gender:

Longevity: 6 years 10 months

Posts: 782

Location: Мальдивы

Торрент-статистика

Post 09-Feb-2016 01:02

[Quote]

Хороший динозавр / The Good Dinosaur (2015) HDRip - Производство: США / Walt Disney Pictures, Pixar Animation Studios
Жанр: Приключения, Комедия
Режиссер: Питер Сон
Персонажи: Джеффри Райт, Фрэнсис МакДорманд, Малиа Нипай-Падилья, Райан Типл, Джек МакГроу, Маркус Скрибнер, Рэймонд Очоа, Джек Брайт, Питер Сон, Стив Зан
Описание:
По сюжету динозавры не вымерли, а эволюционировали в разумных существ и живут и здравствуют на Земле. А вот люди остались на довольно примитивной стадии развития. Фильм расскажет историю дружбы динозавра и маленького мальчика.


Рейтинг MPAA: PG
Дата мировой премьеры: 10 ноября 2015
Дата премьеры в России: 26 ноября 2015, «WDSSPR»
Дата выхода DVD/Blu-ray релиза: 22 марта 2016, «Уолт Дисней Компани СНГ»
Продолжительность: 01:46:03
Качество видео: HDRip
Перевод: Дублированный
Вид субтитров: Отсутствуют
Реклама: Внимание, присутствуют вставки голосовой и текстовой рекламы.
Видео: Xvid, 720x304, ~1949 Kb/s
Аудио: AC3, 2 ch, 128 Kb/s

Mediainfo:

Код:
General
Complete name                            : D:\Фильмы\X0r0Sh1y.D1n0zAvEr.2015.D.HDRip.1400MB.avi
Format                                   : AVI
Format/Info                              : Audio Video Interleave
File size                                : 1.37 GiB
Duration                                 : 1h 33mn
Overall bit rate                         : 2 087 Kbps
Writing application                      : VirtualDubMod 1.5.10.3 | [url=http://www.virtualdub-fr.org]www.virtualdub-fr.org[/url] || (build 2550/release)
Writing library                          : VirtualDubMod build 2550/release
Video
ID                                       : 0
Format                                   : MPEG-4 Visual
Format profile                           : Advanced [email protected]
Format settings, BVOP                    : 2
Format settings, QPel                    : No
Format settings, GMC                     : No warppoints
Format settings, Matrix                  : Default (MPEG)
Codec ID                                 : XVID
Codec ID/Hint                            : XviD
Duration                                 : 1h 33mn
Bit rate                                 : 1 949 Kbps
Width                                    : 720 pixels
Height                                   : 304 pixels
Display aspect ratio                     : 2.35:1
Frame rate                               : 23.976 (24000/1001) fps
Color space                              : YUV
Chroma subsampling                       : 4:2:0
Bit depth                                : 8 bits
Scan type                                : Progressive
Compression mode                         : Lossy
Bits/(Pixel*Frame)                       : 0.371
Stream size                              : 1.28 GiB (93%)
Writing library                          : XviD 1.2.1 (UTC 2008-12-04)
Audio
ID                                       : 1
Format                                   : AC-3
Format/Info                              : Audio Coding 3
Mode extension                           : CM (complete main)
Format settings, Endianness              : Big
Codec ID                                 : 2000
Duration                                 : 1h 33mn
Bit rate mode                            : Constant
Bit rate                                 : 128 Kbps
Channel(s)                               : 2 channels
Channel positions                        : Front: L R
Sampling rate                            : 48.0 KHz
Frame rate                               : 31.250 fps (1536 spf)
Compression mode                         : Lossy
Stream size                              : 86.0 MiB (6%)
Alignment                                : Split accross interleaves
Interleave, duration                     : 42 ms (1.00 video frame)
Interleave, preload duration             : 500 ms
Скриншоты:
         

_________________
Other forum [Profile] [PM]
Similar theme
Forum Topic Author Torrent Replies Last Post
./templates/default/images/folder_dl.gif Фильмы Сибирский бурильщик (Сергей Логинов / Кинокомпания «Клубничка») [2009 г., Feature, Russian Girls, Teens, DVDRip] (Дмитрий Стрелков, Люся Ресничкина, Тина Радзивилл, Лида Хорошева) Anonymous
0 | 1

0 | 8637

48

2017-04-01 20:22
Anonymous Latest
./templates/default/images/folder_dl.gif Фильмы Кому всунешь, ту и чпокнешь (Сергей Логинов / Кинокомпания «Клубничка») [2010 г., Feature, Anal Sex, Russian Girls, DVDRip] (Оля Захарова, Таня Легенда, Злата Козак, Тася Кошечкина, Лида Хорошева, Злата Пинки, Лена Нимфа, Гуля Мамедова, Е. Скворцова) Anonymous
0 | 1

0 | 10012

120

2017-04-01 20:24
Anonymous Latest
Display posts from previous:    
Reply to topic

The time now is: Today 04:43

All times are GMT + 3 Hours



You cannot post new topics in this forum
You cannot reply to topics in this forum
You cannot edit your posts in this forum
You cannot delete your posts in this forum
You cannot vote in polls in this forum
You cannot attach files in this forum
You cannot download files in this forum